<?xml version="1.0" standalone="no"?>
<!DOCTYPE svg PUBLIC "-//W3C//DTD SVG 1.1//EN" "http://www.w3.org/Graphics/SVG/1.1/DTD/svg11.dtd" >
<svg xmlns="http://www.w3.org/2000/svg">
<metadata></metadata>
<defs>
<font id="josefin_sansbold" horiz-adv-x="614" >
<font-face units-per-em="2048" ascent="1536" descent="-512" />
<missing-glyph horiz-adv-x="500" />
<glyph horiz-adv-x="0" />
<glyph unicode="&#xd;" />
<glyph unicode=" " />
<glyph unicode="!" horiz-adv-x="411" d="M98 109q0 47 33 76.5t74 29.5q39 0 71.5 -29.5t32.5 -76.5t-32.5 -78t-71.5 -31q-41 0 -74 30.5t-33 78.5zM119 340v1196h170v-1196h-170z" />
<glyph unicode="&#x22;" horiz-adv-x="686" d="M129 967v508h170q-2 -129 -4 -254t-4 -254h-162zM401 967v508h170q-2 -129 -4 -254t-4 -254h-162z" />
<glyph unicode="#" horiz-adv-x="1169" d="M51 385q4 41 10.5 83t10.5 83h188l25 209h-187q4 41 8.5 83t8.5 83h188q12 98 24.5 195.5t24.5 195.5h172q-12 -98 -24.5 -195.5t-24.5 -195.5h205q12 98 24.5 195.5t24.5 195.5h172q-12 -98 -24.5 -195.5t-24.5 -195.5h209q-4 -41 -8 -83t-9 -83h-210l-25 -209h209 q-4 -41 -10.5 -83t-10.5 -83h-209q-10 -98 -22 -192.5t-23 -192.5h-172q10 98 22.5 192.5t22.5 192.5h-204q-10 -98 -22.5 -192.5t-22.5 -192.5h-172q10 98 22 192.5t23 192.5h-189zM432 551h205l25 209h-205z" />
<glyph unicode="$" horiz-adv-x="1161" d="M94 217l107 107q47 -49 114.5 -101.5t159.5 -70.5v528q-10 4 -24.5 10t-30.5 15q-39 18 -85 43.5t-86 67.5t-67.5 100.5t-29.5 142.5q-2 61 14 122.5t54 115t100.5 90t154.5 49.5v129h172v-131q59 -12 127 -44t146 -98q-25 -31 -48.5 -61.5t-48.5 -61.5 q-27 23 -71.5 52.5t-104.5 46.5v-467q61 -25 122.5 -60.5t111 -86t80 -117t30.5 -154.5q0 -80 -26.5 -147.5t-72.5 -118.5t-109.5 -83t-135.5 -44v-129h-172v131q-66 10 -124 33.5t-107 54.5t-88 66.5t-62 70.5zM322 1053q0 -68 28.5 -107t75.5 -61q10 -6 23.5 -11.5 t25.5 -9.5v406q-78 -23 -115.5 -82t-37.5 -135zM647 160q74 23 124 78t50 147q0 94 -52 146.5t-122 84.5v-456z" />
<glyph unicode="%" horiz-adv-x="1486" d="M184 797q0 53 20.5 100t56.5 82t84 55.5t101 20.5t100.5 -20.5t83.5 -55.5t57.5 -82t21.5 -100q0 -55 -21.5 -102.5t-57.5 -82t-83.5 -55t-100.5 -20.5t-101 20.5t-84 55t-56.5 81.5t-20.5 103zM356 0q154 258 305.5 512t305.5 512h186q-154 -258 -305.5 -512 t-304.5 -512h-187zM356 797q0 -41 25 -68t65 -27q41 0 66 27t25 68t-25 66.5t-66 25.5t-65.5 -25.5t-24.5 -66.5zM807 227q0 53 20.5 100.5t56.5 82t84 55t101 20.5t100.5 -20.5t83 -55t57 -81.5t21.5 -101q0 -55 -21.5 -102t-57 -82t-83 -55.5t-100.5 -20.5t-101 20.5 t-84 55.5t-56.5 82t-20.5 102zM979 227q0 -41 24.5 -67.5t65.5 -26.5t65.5 26.5t24.5 67.5t-24.5 66.5t-65.5 25.5t-65.5 -25.5t-24.5 -66.5z" />
<glyph unicode="&#x26;" horiz-adv-x="1433" d="M215 385q0 74 24.5 139.5t69.5 117.5t104.5 88t131.5 48q-35 59 -72 118.5t-72 119.5q-37 61 -52 126.5t-5 128t48 119t106 97.5q57 35 117.5 42t118 -4.5t107.5 -34t89 -46.5q-16 -35 -33.5 -66.5t-34.5 -66.5q-20 12 -52 27.5t-66.5 23.5t-69.5 8t-62 -18 q-84 -53 -93 -135t40 -162q78 -125 152.5 -248t152.5 -248q2 35 6 60.5t11 48.5q14 45 40.5 66.5t60.5 28.5t73 6t80 -1h96v-166h-90q-31 0 -51.5 -7t-33 -28.5t-16.5 -62.5t-4 -107v-14q0 -41 -10 -86q39 -61 77 -123.5t77 -124.5q-35 -23 -67 -44t-66 -44q-27 41 -51.5 84 t-51.5 84q-57 -68 -139 -107.5t-180 -39.5q-86 0 -161 31.5t-130 87t-87 128t-32 156.5zM385 385q0 -100 66.5 -169t173.5 -69q78 0 136 39t85 103l-203 332q-115 0 -186.5 -62.5t-71.5 -173.5z" />
<glyph unicode="'" horiz-adv-x="333" d="M86 967v508h172q-2 -129 -4 -254t-4 -254h-164z" />
<glyph unicode="(" horiz-adv-x="868" d="M236 596q0 154 28.5 293t75.5 258t107.5 216t125.5 165q37 -12 75 -23.5t75 -23.5q-59 -68 -115.5 -160t-101.5 -204.5t-71.5 -244t-26.5 -276.5t26.5 -276.5t71.5 -244t101.5 -204.5t115.5 -160q-37 -12 -75 -23.5t-75 -23.5q-66 68 -126 165t-107 216t-75.5 258 t-28.5 293z" />
<glyph unicode=")" horiz-adv-x="819" d="M152 -299q59 68 115.5 160t101.5 204.5t71.5 243.5t26.5 277q0 145 -26.5 276t-71.5 244t-101.5 205t-115.5 159q37 12 74.5 25.5t74.5 26.5q63 -68 124.5 -165t109 -216t76 -258t28.5 -293t-28.5 -293t-76 -258t-108.5 -216t-125 -165q-37 10 -75 21.5t-74 21.5z" />
<glyph unicode="*" horiz-adv-x="686" d="M51 1110q33 16 63.5 34.5t63.5 35.5q-31 18 -62.5 37.5t-62.5 37.5l80 142q33 -18 64.5 -38t64.5 -38v154h172q0 -39 -1 -77t-1 -77q33 18 65.5 36.5t65.5 37.5q20 -35 41 -71t41 -71q-35 -18 -66.5 -37.5t-66.5 -37.5l129 -74q-23 -37 -43 -75t-43 -75q-33 18 -63.5 38 t-63.5 38q0 -35 -1 -70.5t-1 -70.5h-164v143q-31 -18 -62.5 -35.5t-62.5 -35.5q-23 37 -43 74.5t-43 74.5z" />
<glyph unicode="+" horiz-adv-x="1112" d="M176 389v166h283v287h172v-287h282v-166h-282v-285h-172v285h-283z" />
<glyph unicode="," horiz-adv-x="409" d="M4 -246q41 106 79 211t79 211h172q-45 -106 -88 -210.5t-88 -211.5h-154z" />
<glyph unicode="-" d="M109 301v166h376v-166h-376z" />
<glyph unicode="." horiz-adv-x="333" d="M68 106q0 47 32.5 78t73.5 31q39 0 72 -30.5t33 -78.5q0 -47 -33 -76.5t-72 -29.5q-41 0 -73.5 29.5t-32.5 76.5z" />
<glyph unicode="/" horiz-adv-x="778" d="M35 -39q143 389 284.5 773t284.5 773h172q-143 -389 -284.5 -773t-284.5 -773h-172z" />
<glyph unicode="0" horiz-adv-x="1261" d="M76 670q0 156 44 281.5t118.5 213.5t175 135.5t215.5 47.5t215 -49.5t174 -138.5t115 -216t41 -282q0 -156 -48.5 -281t-126 -214t-176 -136t-202.5 -47t-203 49t-175.5 139t-121.5 216t-45 282zM248 668q0 -109 28.5 -203t80 -164t119 -110.5t145.5 -40.5 q76 0 145.5 38.5t121.5 108.5t82.5 164t30.5 203q0 74 -18 164t-62 168.5t-116 132t-176 53.5t-177 -52.5t-118 -130t-65.5 -167.5t-20.5 -164z" />
<glyph unicode="1" horiz-adv-x="559" d="M70 1165v166h311v-1331h-172v1165h-139z" />
<glyph unicode="2" horiz-adv-x="1062" d="M90 932q0 82 27.5 157.5t82 133t134.5 91.5t184 34q94 0 172 -35t133.5 -93.5t86 -135t30.5 -162.5q0 -102 -36 -197.5t-94 -190t-134 -185.5t-158 -183h498v-166h-907q127 127 245.5 247t210.5 231.5t147.5 217t55.5 201.5q0 76 -24.5 129t-62.5 88t-82 51.5t-81 16.5 q-78 0 -127 -27t-77.5 -65.5t-40 -81.5t-11.5 -76q0 -68 20.5 -120t59.5 -93q-27 -27 -51.5 -52.5t-50.5 -52.5q-35 23 -62.5 61t-47 82t-30 90t-10.5 85z" />
<glyph unicode="3" horiz-adv-x="1054" d="M121 129q31 29 62.5 58.5t62.5 58.5q37 -45 89 -70.5t114 -25.5q57 0 107 22.5t88 60t60.5 88t22.5 107.5t-22.5 107.5t-60.5 87t-88 58t-107 21.5q-75 1 -134 -34q72 125 142.5 247.5t142.5 247.5h-389v168h674q-74 -123 -146.5 -243.5t-146.5 -243.5q68 -25 123 -65 t96 -93t63.5 -118.5t22.5 -139.5q0 -92 -36 -173t-97.5 -141.5t-142 -95t-172.5 -34.5q-98 0 -182.5 39.5t-145.5 105.5z" />
<glyph unicode="4" horiz-adv-x="1083" d="M76 375q188 244 374.5 486.5t374.5 486.5v-807h199v-166h-199v-375h-172v375h-577zM420 541h233v305q-59 -78 -116.5 -153t-116.5 -152z" />
<glyph unicode="5" horiz-adv-x="1112" d="M211 109q31 29 62.5 57.5t62.5 56.5q35 -35 82 -54t100 -19q57 0 107.5 22.5t88.5 60t60.5 88t22.5 107.5t-22.5 107.5t-60.5 87t-88.5 58t-107.5 21.5q-72 0 -131 -23.5t-94 -80.5v733h588v-166h-416v-301q12 2 25.5 3t27.5 1q92 0 173 -33.5t142.5 -94t97.5 -140.5 t36 -172t-36 -173t-97.5 -141.5t-142.5 -95t-173 -34.5q-90 0 -169 32.5t-138 92.5z" />
<glyph unicode="6" horiz-adv-x="1064" d="M98 403q0 147 62.5 275.5t161 239t219.5 207t235 180.5q27 -33 53.5 -66t53.5 -65q-133 -88 -225.5 -165t-157.5 -143q10 0 21 1t22 1q92 0 173 -33.5t142.5 -94t97 -140.5t35.5 -172t-35.5 -173t-97 -141.5t-142.5 -95t-173 -34.5q-88 0 -167 32.5t-139.5 89t-97.5 133 t-41 164.5zM274 428q0 -57 20.5 -107.5t57.5 -88t86 -60t105 -22.5q57 0 107 22.5t88 60t60.5 88t22.5 107.5t-22.5 107.5t-60.5 87t-88 58t-107 21.5q-55 0 -104.5 -21.5t-86.5 -58t-57.5 -87t-20.5 -107.5z" />
<glyph unicode="7" horiz-adv-x="960" d="M29 1163v168h845q-150 -336 -299 -665.5t-299 -665.5h-194q133 293 263 581.5t263 581.5h-579z" />
<glyph unicode="8" horiz-adv-x="1044" d="M74 428q0 119 57 216t152 157q-41 41 -64.5 97t-23.5 122q0 68 25.5 127t69.5 104t102.5 71t125.5 26q68 0 127.5 -26t104.5 -71t70.5 -104.5t25.5 -126.5q0 -66 -24.5 -122t-65.5 -97q94 -59 152.5 -156.5t58.5 -216.5q0 -92 -36 -173t-97.5 -141.5t-142.5 -95 t-173 -34.5t-173 34.5t-141.5 95t-95 141.5t-34.5 173zM250 428q0 -57 20.5 -107.5t57.5 -88t86 -60t104 -22.5q57 0 107.5 22.5t88.5 60t60.5 88t22.5 107.5q0 55 -21.5 104.5t-57.5 86t-85 59t-105 24.5q-59 0 -110 -21.5t-88 -58t-58.5 -87t-21.5 -107.5zM369 1020 q0 -66 45 -109t108 -43q66 0 110 43t44 109t-44 114t-110 48q-63 0 -108 -48t-45 -114z" />
<glyph unicode="9" horiz-adv-x="1075" d="M53 858q0 92 36 173t97.5 141.5t142.5 95.5t173 35t173 -36t141.5 -96.5t95 -141.5t34.5 -171q0 -139 -64.5 -264t-165 -234.5t-219 -204t-229.5 -173.5q-27 33 -53.5 65.5t-52.5 65.5q133 88 225 164.5t158 142.5q-10 -2 -21.5 -2h-21.5q-92 0 -173 33.5t-142.5 94 t-97.5 140.5t-36 172zM223 858q0 -57 22.5 -107.5t60.5 -87t88 -58t108 -21.5q55 0 104 21.5t86 58t57.5 87t20.5 107.5t-20.5 107.5t-57.5 88.5t-86 60.5t-104 22.5q-57 0 -107.5 -22.5t-88.5 -60.5t-60.5 -88.5t-22.5 -107.5z" />
<glyph unicode=":" horiz-adv-x="358" d="M68 106q0 47 32.5 78t73.5 31q39 0 72 -30.5t33 -78.5q0 -47 -33 -76.5t-72 -29.5q-41 0 -73.5 29.5t-32.5 76.5zM68 618q0 47 32.5 78t73.5 31q39 0 72 -30.5t33 -78.5q0 -47 -33 -76.5t-72 -29.5q-41 0 -73.5 29.5t-32.5 76.5z" />
<glyph unicode=";" horiz-adv-x="411" d="M-25 -246q41 106 79 211t79 211h172q-45 -106 -88 -210.5t-88 -211.5h-154zM131 618q0 47 33 78t74 31q39 0 71.5 -30.5t32.5 -78.5q0 -47 -33 -76.5t-71 -29.5q-41 0 -74 29.5t-33 76.5z" />
<glyph unicode="&#x3c;" horiz-adv-x="1392" d="M238 487q225 129 447 258t448 259v-232q-123 -72 -247 -142.5t-247 -142.5q123 -72 247 -142t247 -142v-232q-225 129 -447.5 258t-447.5 258z" />
<glyph unicode="=" horiz-adv-x="1449" d="M205 229v166h1036v-166h-1036zM205 627v166h1036v-166h-1036z" />
<glyph unicode="&#x3e;" horiz-adv-x="1331" d="M238 -29v232q123 72 246.5 142.5t246.5 141.5q-123 72 -247 142.5t-246 142.5v232q225 -129 447 -258.5t448 -258.5q-225 -129 -447.5 -258t-447.5 -258z" />
<glyph unicode="?" horiz-adv-x="925" d="M84 1186q14 45 41 99t74 101.5t118.5 80t176.5 32.5q84 0 157.5 -31.5t128 -86t85 -127t30.5 -154.5q0 -115 -54.5 -200t-146.5 -155q-29 -20 -61.5 -41.5t-61 -49t-47 -65.5t-18.5 -93v-160h-172v199q0 66 20.5 106.5t55 72t77.5 59.5t91 65q74 55 108.5 120.5 t34.5 141.5q0 100 -62.5 166.5t-164.5 66.5q-115 0 -172.5 -51.5t-88.5 -151.5q-37 14 -74.5 27.5t-74.5 28.5zM311 106q0 47 33 78t74 31q39 0 71.5 -30.5t32.5 -78.5q0 -47 -32.5 -76.5t-71.5 -29.5q-41 0 -74 29.5t-33 76.5z" />
<glyph unicode="@" horiz-adv-x="2027" d="M133 387q0 178 68.5 336t186.5 274.5t275.5 184t337.5 67.5q178 0 336 -67.5t275 -184t184.5 -274.5t67.5 -338q-8 -109 -50 -181.5t-99.5 -118.5t-123 -65.5t-121.5 -19.5h-217v41v41q-2 -6 -20.5 -22.5t-52 -33t-80.5 -30.5t-107 -14q-86 0 -161.5 31.5t-131 87 t-87 128t-31.5 154.5q0 80 31.5 152.5t87 128t131 87t161.5 31.5q53 0 99.5 -14t81 -33.5t55 -38t24.5 -24.5q0 23 4.5 47t4.5 49h141v-602h67q41 0 80 11t70 37t49.5 68t22.5 103q0 145 -54.5 272t-148.5 222.5t-219 149.5t-269 54q-145 0 -271 -54t-221 -149.5 t-149.5 -222.5t-54.5 -272t54.5 -271t149.5 -220.5t221 -148.5t271 -54q121 0 228.5 35.5t200.5 99.5q27 -31 51 -60.5t51 -60.5q-51 -45 -114.5 -79t-134.5 -56.5t-142.5 -33.5t-139.5 -11q-180 0 -337.5 67.5t-275.5 184.5t-186.5 274.5t-68.5 335.5zM754 385 q0 -100 66.5 -169t172.5 -69t173 69t67 169q0 102 -66.5 169t-173.5 67q-106 0 -172.5 -67t-66.5 -169z" />
<glyph unicode="A" horiz-adv-x="1515" d="M125 0q160 377 317.5 749.5t317.5 749.5q160 -377 317.5 -749.5t317.5 -749.5h-170q-59 141 -120 283.5t-120 283.5h-450q-59 -141 -120 -283.5t-120 -283.5h-170zM604 729h311q-35 82 -68.5 163t-68.5 163l-18 67q-29 -102 -72 -198.5t-84 -194.5z" />
<glyph unicode="B" horiz-adv-x="1095" d="M119 0v1434h375q100 0 183 -20.5t141.5 -63.5t91 -112t32.5 -163q0 -127 -60.5 -223t-183.5 -131q57 -12 111.5 -41t94.5 -74t64.5 -104.5t24.5 -132.5q0 -92 -39 -161t-103.5 -115t-148.5 -69.5t-172 -23.5h-411zM289 162h227q63 0 118.5 14t97.5 44t66.5 73t24.5 102 q0 63 -28.5 110.5t-74.5 77t-107.5 44t-125.5 14.5h-198v-479zM289 803h221q121 0 191.5 67.5t70.5 178.5q0 121 -73.5 172t-192.5 51h-217v-469z" />
<glyph unicode="C" horiz-adv-x="1372" d="M127 715q0 152 57.5 286t156.5 233t232.5 157.5t284.5 58.5q104 0 197.5 -26.5t177.5 -75.5q-23 -35 -47.5 -69t-46.5 -69q-63 37 -133 57.5t-148 20.5q-117 0 -218 -45t-178 -124t-121 -183.5t-44 -220.5q0 -117 44 -221.5t121 -181t178 -122t218 -45.5q152 0 281 76 l92 -135q-82 -47 -175 -74.5t-198 -27.5q-152 0 -285 57t-232 156.5t-156.5 232.5t-57.5 285z" />
<glyph unicode="D" horiz-adv-x="1335" d="M123 0v1434h334q147 0 278 -50.5t229.5 -144.5t156 -226t57.5 -298q0 -121 -42 -248t-136.5 -230.5t-245 -170t-367.5 -66.5h-264zM293 164h143q121 0 225.5 39t181.5 111.5t121 174t44 228.5t-44 229.5t-121 175t-181.5 111.5t-225.5 39h-143v-1108z" />
<glyph unicode="E" horiz-adv-x="1230" d="M141 0v1434h883v-162h-713v-469h633v-162h-633v-479h742v-162h-912z" />
<glyph unicode="F" horiz-adv-x="1202" d="M141 0v1434h883v-162h-713v-469h633v-162h-633v-641h-170z" />
<glyph unicode="G" horiz-adv-x="1417" d="M127 715q0 152 57.5 286t156.5 233t232.5 157.5t284.5 58.5q104 0 197.5 -26.5t177.5 -75.5q-23 -35 -47.5 -69t-46.5 -69q-63 37 -133 57.5t-148 20.5q-117 0 -218 -45t-178 -124t-121 -183.5t-44 -220.5q0 -117 44 -221.5t121 -181t178 -122t218 -45.5q106 0 203 37 v209q0 35 -7 48.5t-40 13.5h-164v161h283q59 0 78.5 -29.5t19.5 -92.5v-406q-82 -47 -175 -74.5t-198 -27.5q-152 0 -285 57t-232 156.5t-156.5 232.5t-57.5 285z" />
<glyph unicode="H" horiz-adv-x="1433" d="M160 0v1434h170v-631h774v631h170v-1434h-170v641h-774v-641h-170z" />
<glyph unicode="I" horiz-adv-x="569" d="M203 0v1434h170v-1434h-170z" />
<glyph unicode="J" horiz-adv-x="700" d="M35 -133q141 8 232 90t91 233v1244h170v-1250q0 -115 -37.5 -202.5t-103 -148t-157 -93.5t-195.5 -35v162z" />
<glyph unicode="K" horiz-adv-x="1228" d="M104 0v1434h170v-562q-2 -16 -3 -32.5t-3 -32.5q10 12 19.5 23.5t19.5 23.5q154 145 304.5 289.5t303.5 290.5h209q-154 -147 -305 -291t-305 -291q170 -215 338 -426t338 -426h-203q-147 186 -292.5 371.5t-293.5 371.5q-33 -31 -63.5 -60.5t-63.5 -59.5v-623h-170z" />
<glyph unicode="L" horiz-adv-x="1214" d="M141 0v1434h170v-1272h742v-162h-912z" />
<glyph unicode="M" horiz-adv-x="1918" d="M205 0v1499q188 -244 374.5 -486.5t374.5 -486.5q188 244 375 486.5t375 486.5v-1499h-170v963q2 16 3 32.5t3 32.5q-135 -201 -286.5 -390t-299.5 -382q-137 180 -274 358.5t-274 358.5l-37 55q2 -16 3 -32.5t3 -32.5v-963h-170z" />
<glyph unicode="N" horiz-adv-x="1665" d="M205 0v1499q264 -287 524 -568.5t524 -568.5q10 -14 19.5 -26t19.5 -27q-2 16 -3 32.5t-3 33.5v1059h170v-1500q-264 281 -524 557.5t-524 557.5q-10 14 -19.5 26t-19.5 27q2 -16 3 -32.5t3 -33.5v-1036h-170z" />
<glyph unicode="O" horiz-adv-x="1720" d="M127 715q0 150 57.5 284t156.5 234t232.5 158.5t284.5 58.5q150 0 284 -58.5t234.5 -158.5t158.5 -234.5t58 -283.5q0 -152 -58 -285t-158.5 -232.5t-234.5 -156.5t-284 -57q-152 0 -285 57t-232 156.5t-156.5 232.5t-57.5 285zM297 715q0 -119 44 -222.5t121 -180 t179 -122t219 -45.5t219.5 45.5t179 122t120.5 180t44 222.5t-44 222t-120.5 181t-179 123t-219.5 45t-219 -45t-179 -123t-121 -181t-44 -222z" />
<glyph unicode="P" horiz-adv-x="1001" d="M119 0v1434h338q70 0 154.5 -21.5t158.5 -69t123 -121t49 -178.5q0 -186 -110.5 -295.5t-319.5 -109.5h-223v-639h-170zM289 803h178q90 0 148.5 23.5t93 58.5t49 78t14.5 81q0 45 -23.5 87.5t-63.5 74t-96.5 50t-119.5 18.5h-180v-471z" />
<glyph unicode="Q" horiz-adv-x="1724" d="M127 715q0 152 57.5 286t156.5 233t232.5 157.5t284.5 58.5q152 0 286 -58.5t233.5 -157.5t157.5 -233.5t58 -285.5q0 -166 -69.5 -309.5t-186.5 -243.5h301v-162h-628q-78 -16 -152 -16q-152 0 -285 57t-232 156.5t-156.5 232.5t-57.5 285zM297 715q0 -117 44 -221.5 t121 -181t178 -122t218 -45.5t219.5 45.5t179 122t121.5 181t45 221.5t-45 221t-121.5 183t-179 124t-219.5 45t-218 -45t-178 -124t-121 -183t-44 -221z" />
<glyph unicode="R" horiz-adv-x="1062" d="M119 0v1434h338q70 0 154.5 -21.5t158.5 -69t123 -121t49 -178.5q0 -154 -77 -257t-224 -136l307 -651h-184l-301 639h-35h-139v-639h-170zM289 803h178q90 0 148.5 23.5t93 58.5t49 78t14.5 81q0 45 -23.5 87.5t-63.5 74t-96.5 50t-119.5 18.5h-180v-471z" />
<glyph unicode="S" horiz-adv-x="1153" d="M94 217l107 107q27 -29 63.5 -61t79.5 -58.5t94 -43t111 -16.5q53 0 102 15.5t87 45.5t60.5 75t22.5 104q0 82 -40 133t-98 85t-121.5 54.5t-110.5 38.5q-37 14 -88.5 39t-97.5 67t-78.5 104.5t-34.5 152.5v12q0 61 18 123q20 68 67.5 123t125 90t190.5 35q82 0 170 -29 t197 -121q-25 -31 -48.5 -61.5t-48.5 -61.5q-16 16 -42.5 36t-60.5 36t-76 27.5t-89 11.5q-119 0 -176 -67.5t-57 -159.5q0 -51 19 -86t51 -58.5t72 -40t83 -30.5q68 -25 145.5 -59t144 -86t110.5 -128t44 -182q0 -92 -33.5 -166t-92 -126t-136.5 -79.5t-164 -27.5 q-78 0 -151.5 21.5t-135 55t-109.5 74.5t-75 82z" />
<glyph unicode="T" horiz-adv-x="1132" d="M0 1272v162h1133v-162h-480v-1272h-170v1272h-483z" />
<glyph unicode="U" horiz-adv-x="1335" d="M156 463v971h170v-965q0 -78 25.5 -138.5t71.5 -101.5t109.5 -62.5t139.5 -21.5t139 21.5t109.5 62.5t73 101.5t26.5 138.5v965h170v-971q0 -117 -40 -207t-109.5 -150.5t-163.5 -91t-205 -30.5t-205 30.5t-164 91t-108.5 150.5t-38.5 207z" />
<glyph unicode="V" horiz-adv-x="1478" d="M111 1434h170q113 -266 223 -527.5t223 -527.5l18 -68l19 68q113 266 223 527.5t223 527.5h170q-160 -377 -317.5 -750t-317.5 -750q-160 377 -317.5 750t-316.5 750z" />
<glyph unicode="W" horiz-adv-x="2269" d="M111 1434h170q113 -266 223 -527.5t223 -527.5l18 -68q25 92 61 183.5t76 182.5t82 181t78 178q-41 100 -84 198.5t-84 199.5h170q113 -266 223.5 -527.5t223.5 -527.5l18 -68l19 68q113 266 223 527.5t223 527.5h170q-160 -377 -317.5 -750t-317.5 -750l-362 854 q-4 18 -10.5 36t-10.5 36q-29 -115 -73.5 -232.5t-98 -234.5t-107.5 -232.5t-102 -226.5q-160 377 -317.5 750t-316.5 750z" />
<glyph unicode="X" horiz-adv-x="1433" d="M190 0q121 184 239 365.5t239 365.5q-115 176 -228.5 351t-228.5 352h209q84 -129 167 -257t167 -257q6 -14 13 -27.5t13 -28.5q6 14 13.5 27.5t13.5 28.5q84 129 167 257t167 257h209q-117 -180 -233 -357.5t-232 -357.5q117 -180 234.5 -359.5t234.5 -359.5h-211 l-344 528q-8 14 -14.5 28.5t-14.5 29.5q-6 -14 -13 -28.5t-14 -29.5q-86 -133 -171 -264t-171 -264h-211z" />
<glyph unicode="Y" horiz-adv-x="1306" d="M25 1434h208q98 -166 196.5 -331t197.5 -331q6 -16 11 -31.5t11 -31.5h2q6 16 12.5 31.5t12.5 31.5q98 166 195.5 331t195.5 331h209q-131 -223 -260 -441.5t-260 -441.5v-551h-209v553q-131 221 -261 440t-261 441z" />
<glyph unicode="Z" horiz-adv-x="1433" d="M166 0v164q221 279 438 554t438 554h-692q-63 0 -107 37t-44 96v100h170v-24q0 -33 13 -40t48 -7h821v-162q-221 -279 -438 -554.5t-438 -553.5h936v-164h-1145z" />
<glyph unicode="[" horiz-adv-x="692" d="M170 -305v1833h393v-166h-223v-1501h223v-166h-393z" />
<glyph unicode="\" horiz-adv-x="788" d="M0 1507h193q143 -389 284 -773t285 -773h-193q-143 389 -284.5 773t-284.5 773z" />
<glyph unicode="]" horiz-adv-x="700" d="M121 -139h223v1501h-223v166h393v-1833h-393v166z" />
<glyph unicode="^" horiz-adv-x="962" d="M229 981q61 92 123 185.5t123 185.5q61 -92 122.5 -185.5t123.5 -185.5h-121q-31 37 -62.5 74t-62.5 73q-31 -37 -62.5 -73.5t-62.5 -73.5h-121z" />
<glyph unicode="_" horiz-adv-x="1228" d="M205 0v166h819v-166h-819z" />
<glyph unicode="`" horiz-adv-x="409" d="M-104 1253h172q47 -68 92 -136t92 -136h-121q-59 68 -117.5 136.5t-117.5 135.5z" />
<glyph unicode="a" horiz-adv-x="1044" d="M100 383q0 80 32 153.5t87 129t131 88t162 32.5q55 0 102.5 -16t82 -35.5t55 -38t20.5 -24.5q0 23 4 47t4 49h142v-768h-150v66v18q0 -6 -18.5 -22.5t-51 -34t-81 -31.5t-109.5 -14q-86 0 -162 31.5t-131 87t-87 128t-32 154.5zM272 385q0 -100 67 -169t173 -69t173 69 t67 169q0 102 -67 169t-173 67t-173 -67t-67 -169z" />
<glyph unicode="b" horiz-adv-x="1091" d="M168 0v1536h170v-795q-4 -16 -10 -32.5t-11 -32.5q0 6 20.5 23.5t55.5 37t82 34.5t103 15q86 0 161.5 -31.5t131 -87t87 -128t31.5 -154.5t-31.5 -155.5t-87 -129t-131 -87t-161.5 -31.5q-61 0 -109.5 14t-81.5 31.5t-51.5 34t-18.5 22.5v-18v-66h-149zM338 385 q0 -100 66.5 -169t173.5 -69q106 0 172.5 69t66.5 169q0 102 -66.5 169t-172.5 67t-173 -67t-67 -169z" />
<glyph unicode="c" horiz-adv-x="808" d="M74 385q0 82 31.5 155.5t87 128t130 86t160.5 31.5q76 0 141.5 -23.5t118.5 -64.5q-27 -33 -53 -63.5t-53 -63.5q-66 49 -154 50q-106 0 -172.5 -67t-66.5 -169q0 -100 66.5 -169t172.5 -69q91 1 154 52q27 -33 51.5 -65t50.5 -64q-53 -41 -117.5 -64.5t-138.5 -23.5 q-86 0 -160.5 31.5t-130 87t-87 128t-31.5 156.5z" />
<glyph unicode="d" horiz-adv-x="1081" d="M100 385q0 82 32 154.5t87 128t131 87t162 31.5q55 0 102.5 -15t82 -34.5t55 -37t20.5 -23.5q-4 16 -10 32.5t-10 32.5v795h170v-1536h-150v66v18q0 -6 -18.5 -22.5t-51 -34t-81 -31.5t-109.5 -14q-86 0 -162 31.5t-131 87t-87 129t-32 155.5zM272 385q0 -100 67 -169 t173 -69t173 69t67 169q0 102 -67 169t-173 67t-173 -67t-67 -169z" />
<glyph unicode="e" horiz-adv-x="923" d="M74 385q0 82 31.5 155.5t87 128t130 86t160.5 31.5q63 0 122 -25.5t105 -70.5t81 -107.5t53 -136.5q-139 -51 -277.5 -102t-277.5 -102q31 -43 81 -69t113 -26q94 0 156 66l104 -123q-51 -51 -116.5 -79.5t-143.5 -28.5q-86 0 -160.5 31.5t-130 87t-87 128t-31.5 156.5z M244 401q96 35 191 71t192 71q-29 35 -65 56.5t-79 21.5q-82 0 -141 -41t-84 -107q-10 -31 -14 -72z" />
<glyph unicode="f" horiz-adv-x="671" d="M45 621v165h131v273q0 115 38 203t103.5 148t156.5 92t196 36v-162q-141 -8 -232.5 -90t-91.5 -233v-267h240v-165h-240v-621h-170v621h-131z" />
<glyph unicode="g" horiz-adv-x="1060" d="M100 383q0 80 32 153.5t87 129t131 88t162 32.5q55 0 102.5 -16t82 -35.5t55 -38t20.5 -24.5q0 23 4 47t4 49h142v-801v-90q0 -82 -32 -152.5t-87 -123t-129 -83t-160 -30.5q-92 0 -178 40t-148 83q29 35 56.5 69.5t56.5 69.5q41 -31 95.5 -58.5t113.5 -27.5 q53 0 97 18.5t77 50t50.5 76t17.5 95.5v137q4 10 9 19.5t9 19.5q-6 -8 -26.5 -24.5t-53.5 -32t-78 -27.5t-100 -12q-86 0 -162 31.5t-131 86t-87 127t-32 154.5zM272 385q0 -100 67 -169t173 -69t173 69t67 169q0 102 -67 169t-173 67t-173 -67t-67 -169z" />
<glyph unicode="h" horiz-adv-x="1075" d="M168 0v1536h170v-872l-6 -93q45 100 131 154.5t203 60.5q121 0 190.5 -63.5t73.5 -165.5v-557h-170v479q-4 55 -40 95t-114 44q-53 0 -101 -18t-85 -51t-59.5 -78t-22.5 -98v-373h-170z" />
<glyph unicode="i" horiz-adv-x="409" d="M100 1065q0 47 33 78t74 31q39 0 71.5 -31t32.5 -78t-32.5 -77t-71.5 -30q-41 0 -74 30t-33 77zM119 0v768h170v-768h-170z" />
<glyph unicode="j" horiz-adv-x="460" d="M43 -244q53 41 82 102.5t29 147.5v764q43 0 85 -1t85 -1v-768q0 -125 -43 -218.5t-121 -152.5q-29 33 -58.5 64t-58.5 63zM139 1065q0 47 33 78t74 31q39 0 71.5 -31t32.5 -78t-32.5 -77t-71.5 -30q-41 0 -74 30t-33 77z" />
<glyph unicode="k" horiz-adv-x="919" d="M119 0v1536h170v-1104q98 92 190.5 177t190.5 177l100 -100q-70 -66 -131 -124t-131 -124q80 -111 160 -219t159 -219h-196q-59 82 -120.5 164t-121.5 164q-25 -23 -50.5 -47.5t-49.5 -47.5v-233h-170z" />
<glyph unicode="l" horiz-adv-x="397" d="M119 0v1536h170v-1536h-170z" />
<glyph unicode="m" horiz-adv-x="1630" d="M168 0v768h149v-18q4 -49 7.5 -89t7.5 -90q43 98 130 154.5t204 60.5q113 0 181 -56t81 -148q45 94 131 147t198 57q121 0 191 -63.5t74 -165.5v-557h-170v479q-4 55 -40 95t-114 44q-53 0 -101 -18t-85 -51t-59.5 -78t-22.5 -98v-373h-170v479q-4 55 -40 95t-114 44 q-53 0 -101 -18t-85 -51t-59.5 -78t-22.5 -98v-373h-170z" />
<glyph unicode="n" horiz-adv-x="1013" d="M168 0v768h149v-18q4 -49 7.5 -89t7.5 -90q41 98 132 156.5t202 58.5q121 0 190.5 -63.5t73.5 -165.5v-557h-170v479q-4 55 -40 95t-114 44q-53 0 -101 -18t-85 -51t-59.5 -78t-22.5 -98v-373h-170z" />
<glyph unicode="o" horiz-adv-x="972" d="M74 385q0 82 31.5 155.5t87 128t130 86t160.5 31.5t162 -31.5t131 -86t87 -128t32 -155.5q0 -84 -32 -156.5t-87 -128t-131 -87t-162 -31.5t-160.5 31.5t-130 87t-87 128t-31.5 156.5zM244 383q0 -49 18.5 -92t50 -75t74.5 -50.5t92 -18.5t92 18.5t76 50.5t51.5 75 t18.5 92t-18.5 92t-51.5 76t-76 51.5t-92 18.5t-92 -18.5t-74.5 -51.5t-50 -76t-18.5 -92z" />
<glyph unicode="p" horiz-adv-x="1075" d="M137 -512v1280h142q0 -25 3 -48.5t5 -47.5q0 6 20.5 24.5t55 38t82 35.5t102.5 16q86 0 161.5 -31.5t131 -87t87 -128t31.5 -154.5t-31.5 -155.5t-87 -129t-131 -87t-161.5 -31.5q-61 0 -109.5 14t-81 31.5t-51 34t-18.5 22.5q4 -10 10 -22.5t10 -22.5v-551h-170z M307 385q0 -100 66.5 -169t173.5 -69q106 0 172.5 69t66.5 169q0 102 -66.5 169t-172.5 67t-173 -67t-67 -169z" />
<glyph unicode="q" horiz-adv-x="1048" d="M100 385q0 82 32 154.5t87 128t131 87t162 31.5q55 0 102.5 -16t82 -35.5t55 -38t20.5 -24.5q2 25 5 48t3 48h142v-1280h-170v551q4 10 10 22.5t10 22.5q0 -6 -18.5 -22.5t-51 -34t-81 -31.5t-109.5 -14q-86 0 -162 31.5t-131 87t-87 129t-32 155.5zM272 385 q0 -100 67 -169t173 -69t173 69t67 169q0 102 -67 169t-173 67t-173 -67t-67 -169z" />
<glyph unicode="r" horiz-adv-x="677" d="M168 0v768h149v-18q4 -49 7.5 -89t7.5 -90q25 51 62.5 91t79.5 68t82 42t71 14l-13 -168q-125 0 -200.5 -69.5t-75.5 -175.5v-373h-170z" />
<glyph unicode="s" horiz-adv-x="724" d="M117 80q27 31 51.5 62.5t50.5 62.5q45 -29 76 -42t80 -13q2 0 15 1t29.5 8t30 21.5t15.5 42.5q2 37 -20.5 56.5t-58.5 33t-79 26.5t-81 36.5t-62.5 66.5t-24.5 115q0 63 24.5 106.5t61.5 71t80 39.5t78 12q20 0 50 -4t60.5 -14t60 -26.5t52.5 -41.5q-23 -33 -47 -63.5 t-47 -63.5q-10 10 -40 29t-79 19q-45 0 -65.5 -19.5t-16.5 -52.5q4 -25 31 -40t62.5 -29.5t76.5 -33t76 -46t57.5 -69.5t22.5 -106q0 -29 -11.5 -69.5t-40 -79.5t-79.5 -65.5t-133 -26.5q-76 0 -145.5 25.5t-110.5 70.5z" />
<glyph unicode="t" d="M49 621v165h172v482h170v-482h201v-165h-201v-621h-170v621h-172z" />
<glyph unicode="u" horiz-adv-x="1083" d="M168 211v557h170v-479q4 -55 40 -95t114 -44q53 0 101 18t85 51t59.5 78t22.5 98v373h170v-786h-170v122l6 93q-41 -98 -132 -156.5t-202 -58.5q-121 0 -190.5 63.5t-73.5 165.5z" />
<glyph unicode="v" horiz-adv-x="1024" d="M111 768h170q33 -61 71.5 -127t76.5 -131.5t69.5 -132t54.5 -131.5q20 66 53 132t71 131.5t76 131.5t72 127h170q-111 -205 -221 -407.5t-221 -407.5q-111 205 -221.5 407.5t-220.5 407.5z" />
<glyph unicode="w" horiz-adv-x="1581" d="M111 768h170q59 -129 127.5 -259t113.5 -263q37 111 91.5 216.5t101.5 209.5q-12 25 -23.5 48t-23.5 48h170q59 -129 127.5 -259t113.5 -263q45 133 114 263t128 259h170q-104 -205 -205.5 -407.5t-206.5 -407.5q-70 139 -139.5 275.5t-138.5 275.5 q-70 -139 -139.5 -275.5t-139.5 -275.5q-104 205 -205.5 407.5t-205.5 407.5z" />
<glyph unicode="x" horiz-adv-x="972" d="M43 0q76 104 151.5 207t151.5 207q-66 90 -130 177t-130 177h209q51 -68 101 -136.5t102 -135.5q49 68 99 136t99 136h209q-76 -104 -150.5 -206.5t-150.5 -207.5q66 -90 132.5 -177t131.5 -177h-217q-51 68 -100 136.5t-100 135.5q-49 -68 -99.5 -136t-99.5 -136h-209z " />
<glyph unicode="y" horiz-adv-x="1024" d="M53 768h170q76 -150 163 -304.5t140 -311.5q27 78 63 156.5t77 155.5t83 153.5t78 150.5h170q-162 -322 -322.5 -640t-322.5 -640h-170q66 129 129.5 256t128.5 256z" />
<glyph unicode="z" horiz-adv-x="923" d="M86 0v166q63 57 119.5 111.5t111 107.5t109.5 108.5t121 112.5h-285q-63 0 -107 37t-44 96v101h170v-25q0 -33 13 -40t48 -7h444v-166q-66 -57 -121 -111.5t-109 -107.5t-110.5 -106.5t-119.5 -110.5h508v-166h-748z" />
<glyph unicode="{" horiz-adv-x="655" d="M61 524v166q49 2 81 30t50.5 68.5t24.5 89t6 89.5v319q0 94 19.5 144.5t52.5 72t77 23.5t93 2h129v-166h-90q-31 0 -51.5 -8t-32.5 -32t-17.5 -64.5t-5.5 -106.5v-264q0 -63 -13 -109.5t-33.5 -79t-43 -54t-43.5 -34.5q20 -12 43 -33.5t43.5 -55.5t33.5 -79t13 -106v-264 q0 -66 5.5 -108t17.5 -64.5t32.5 -30.5t51.5 -8h90v-166h-129q-47 0 -91 2t-78 23.5t-53.5 70.5t-19.5 146v311q0 41 -6 89t-24.5 89t-50.5 68.5t-81 29.5z" />
<glyph unicode="|" horiz-adv-x="555" d="M186 -475v1909h172v-1909h-172z" />
<glyph unicode="}" horiz-adv-x="655" d="M61 -139h91q31 0 51 8t32.5 30.5t17.5 64.5t5 108v264q0 61 13.5 107t34 79t44 54.5t41.5 33.5q-20 12 -43.5 34t-43 54.5t-33 78.5t-13.5 110v264q0 66 -5 106.5t-17.5 64.5t-33 32t-50.5 8h-91v166h129q47 0 91.5 -2t78 -23.5t53 -71t19.5 -145.5v-319q0 -41 7 -89.5 t24.5 -89t49.5 -68.5t81 -30v-166q-49 -2 -81 -29.5t-49.5 -68.5t-24.5 -89t-7 -89v-311q0 -96 -19.5 -145.5t-52 -71t-76.5 -23.5t-94 -2h-129v166z" />
<glyph unicode="~" horiz-adv-x="1001" d="M248 950q2 41 20.5 75t45 57.5t58 35.5t62.5 12q47 0 85 -18t73 -49q31 -33 54.5 -43t51.5 -10q14 0 32 4t34 14t27.5 28.5t15.5 47.5l92 -6q-2 -41 -20.5 -75t-45 -56.5t-58.5 -34.5t-62 -12q-47 0 -85 18t-73 47q-31 33 -54.5 43t-51.5 10q-29 0 -66 -18.5t-43 -75.5z " />
<glyph unicode="&#xa0;" />
<glyph unicode="&#xa1;" horiz-adv-x="409" d="M98 997q0 -47 33 -76.5t74 -29.5q39 0 71.5 29.5t32.5 76.5t-32.5 78t-71.5 31q-41 0 -74 -30.5t-33 -78.5zM119 -430h170v1196h-170v-1196z" />
<glyph unicode="&#xa2;" horiz-adv-x="788" d="M74 385q0 68 21.5 129t60.5 112.5t93 88.5t118 55v127h172v-115q55 -8 109 -28.5t95 -55.5q-27 -33 -53 -63.5t-53 -63.5q-41 29 -98 43v-462q27 6 52.5 18.5t45.5 28.5q27 -33 51.5 -65t50.5 -64q-86 -72 -200 -84v-125h-172v139q-63 18 -117.5 55t-93.5 87.5 t-60.5 112.5t-21.5 130zM244 385q0 -70 32.5 -125t90.5 -86v418q-57 -29 -90 -83t-33 -124z" />
<glyph unicode="&#xa3;" horiz-adv-x="1175" d="M59 0v166h91q33 0 53 7t32.5 29.5t16.5 62.5t4 106v188h-133v166h133v299q0 141 119 207.5t334 66.5q137 0 219 -61t123 -143q-33 -18 -65 -38t-64 -38q-10 14 -23.5 33.5t-36 38t-59.5 31t-94 12.5q-139 0 -210 -29t-71 -125v-254h240v-166h-240v-225q0 -59 -5 -99 t-38 -69h352q66 0 107 5t64.5 17.5t31.5 33t8 50.5v90q43 0 86 1.5t86 1.5v-191q0 -37 -8 -69.5t-34.5 -55t-74 -36t-124.5 -13.5h-820z" />
<glyph unicode="&#xa4;" horiz-adv-x="1024" d="M174 522l49 49q-45 78 -45 168q0 45 11.5 85t31.5 75q-12 12 -23.5 24.5t-23.5 24.5l121 121l49 -49q39 18 78 30.5t84 12.5t86 -11.5t78 -31.5l49 49l121 -121l-45 -45q45 -78 45 -164q0 -90 -47 -166l49 -49l-121 -121q-14 12 -26.5 25.5t-26.5 26.5q-72 -41 -162 -41 q-86 0 -160 39l-51 -52zM350 737q0 -66 46 -111.5t112 -45.5q33 0 62.5 12t51 33.5t34 50.5t12.5 61q0 66 -47.5 113t-112.5 47q-33 0 -61.5 -12.5t-50 -34t-34 -51t-12.5 -62.5z" />
<glyph unicode="&#xa5;" horiz-adv-x="1306" d="M25 1434h208q98 -166 196.5 -331t197.5 -331q6 -16 11 -31.5t11 -31.5h2q6 16 12.5 31.5t12.5 31.5q98 166 195.5 331t195.5 331h209q-109 -184 -215.5 -364.5t-214.5 -364.5h143v-166h-233v-168h233v-166h-233v-205h-209v205h-240v166h240v168h-240v166h150 q-109 184 -216.5 364t-215.5 365z" />
<glyph unicode="&#xa6;" horiz-adv-x="440" d="M141 240h172v-717h-172v717zM141 717v717h172v-717h-172z" />
<glyph unicode="&#xa7;" horiz-adv-x="1024" d="M245 679q-9 54 0 107.5t34.5 100.5t68.5 82q59 47 144 55q-23 35 -41.5 69.5t-40.5 71.5q-39 68 -51.5 116t-4.5 84t32 60.5t58 44.5q37 23 76 45.5t76 45.5q23 -35 43 -72t43 -72q-20 -10 -39.5 -22.5t-40.5 -22.5q-25 -16 -38 -30.5t-14 -35t9 -48t35 -70.5h2 q47 -78 91 -152.5t91 -152.5q29 -47 38 -100.5t-1 -105.5t-37.5 -99.5t-70.5 -79.5q-59 -47 -144 -60q23 -35 43.5 -71.5t42.5 -71.5q39 -68 52.5 -117t5 -85t-33 -61.5t-57.5 -45.5q-37 -23 -74.5 -44.5t-74.5 -43.5q-23 35 -43.5 71.5t-42.5 71.5q20 12 39.5 23.5 t40.5 23.5q25 14 38 30.5t11 40t-17.5 57.5t-48.5 87q-57 90 -88.5 143.5t-48 81t-20.5 36.5t-4 14q-29 47 -38 101zM397 737q0 -55 38 -93t93 -38q53 0 92 38t39 93q0 53 -37.5 92t-93.5 39q-53 0 -92 -38t-39 -93z" />
<glyph unicode="&#xa8;" horiz-adv-x="757" d="M100 1065q0 47 33 78t74 31q39 0 71.5 -31t32.5 -78t-32.5 -77t-71.5 -30q-41 0 -74 30t-33 77zM440 1065q0 47 33 78t74 31q39 0 71.5 -31t32.5 -78t-32.5 -77t-71.5 -30q-41 0 -74 30t-33 77z" />
<glyph unicode="&#xa9;" horiz-adv-x="1624" d="M281 762q0 117 43 215t115.5 170t171 111.5t208.5 39.5q111 0 209 -39.5t171 -111.5t116 -170t43 -215q0 -115 -43 -212t-116 -169t-171 -113t-209 -41t-209 41t-170.5 113t-115.5 169t-43 212zM362 762q0 -98 35 -182t96.5 -145.5t145.5 -96.5t180 -35t180 35 t145.5 96.5t96.5 145.5t35 182q0 100 -35 184t-96.5 145.5t-145.5 96.5t-180 35t-180 -35t-145.5 -96.5t-96.5 -145.5t-35 -184zM502 768q0 70 25.5 130t70.5 105.5t105.5 71t127.5 25.5q92 0 170 -45q-10 -16 -21 -31.5t-22 -32.5q-59 37 -127 37q-53 0 -98 -20.5 t-80 -56.5t-54 -83t-19 -100t19 -100t54 -82t80 -55.5t98 -20.5q70 0 127 35l43 -62q-37 -23 -79.5 -35t-90.5 -12q-68 0 -128 26.5t-105 72t-70.5 105.5t-25.5 128z" />
<glyph unicode="&#xaa;" horiz-adv-x="1198" d="M158 728q0 58 23 111t63 93t94.5 63.5t116.5 23.5q40 0 74.5 -11.5t59 -25.5t39.5 -27.5t15 -17.5q0 16 3 33.5t3 35.5h102v-554h-108v48v13q0 -5 -13.5 -17t-37 -24.5t-58.5 -22.5t-79 -10q-62 0 -116.5 22.5t-94.5 63t-63 92.5t-23 111zM282 730q0 -72 48.5 -122 t124.5 -50q77 0 125 50t48 122q0 73 -48 121.5t-125 48.5q-76 0 -124.5 -48.5t-48.5 -121.5z" />
<glyph unicode="&#xab;" horiz-adv-x="1230" d="M240 489q88 84 175 165t175 165v-194q-35 -35 -66.5 -68t-66.5 -68q35 -35 66.5 -68.5t66.5 -68.5v-194zM590 489q88 84 175 165t175 165v-192q-35 -35 -66.5 -69t-66.5 -69q35 -35 66.5 -68.5t66.5 -68.5v-194z" />
<glyph unicode="&#xac;" horiz-adv-x="1144" d="M205 385v123h737v-205h-172v82h-565z" />
<glyph unicode="&#xad;" d="M109 301v166h376v-166h-376z" />
<glyph unicode="&#xae;" horiz-adv-x="1640" d="M281 762q0 117 43 215t115.5 170t171 111.5t208.5 39.5q111 0 209 -39.5t171 -111.5t116 -170t43 -215q0 -115 -43 -212t-116 -169t-171 -113t-209 -41t-209 41t-170.5 113t-115.5 169t-43 212zM362 762q0 -98 35 -182t96.5 -145.5t145.5 -96.5t180 -35t180 35 t145.5 96.5t96.5 145.5t35 182q0 100 -35 184t-96.5 145.5t-145.5 96.5t-180 35t-180 -35t-145.5 -96.5t-96.5 -145.5t-35 -184zM655 430v678h162q33 0 73 -10.5t74.5 -33t58.5 -57t24 -83.5q0 -72 -37 -121t-107 -66q37 -78 74 -153.5t72 -153.5h-86q-35 76 -72 150.5 t-72 152.5h-16h-66v-303h-82zM737 809h84q43 0 71 11t45 27.5t23.5 37t6.5 39.5q0 43 -42 75.5t-102 32.5h-86v-223z" />
<glyph unicode="&#xaf;" horiz-adv-x="817" d="M174 979v108h471v-108h-471z" />
<glyph unicode="&#xb0;" horiz-adv-x="577" d="M74 1147q0 43 16 80t44 64.5t67 44t82 16.5t79.5 -16.5t64.5 -44t44 -64.5t16 -80t-16 -81t-44 -65.5t-64.5 -43t-79.5 -15.5t-82 15.5t-67 43t-44 65.5t-16 81zM184 1145q0 -41 29 -69.5t70 -28.5t70.5 28.5t29.5 69.5t-29.5 70.5t-70.5 29.5t-70 -29.5t-29 -70.5z" />
<glyph unicode="&#xb1;" horiz-adv-x="1073" d="M176 205v166h737v-166h-737zM176 717v166h283v286h172v-286h282v-166h-282v-285h-172v285h-283z" />
<glyph unicode="&#xb2;" horiz-adv-x="815" d="M123 839q0 41 14 78t40.5 65.5t66 45.5t91.5 17q46 0 84.5 -17.5t66 -46.5t42.5 -66.5t15 -80.5q0 -50 -18 -97t-46.5 -94t-66 -92t-77.5 -90h245v-82h-447q62 63 120.5 122t104 114t73 107.5t27.5 99.5q0 38 -12 64t-31 43t-40.5 25.5t-39.5 8.5q-39 0 -63 -13.5 t-38 -32.5t-20 -40t-6 -38q0 -33 10 -59t30 -46q-14 -13 -26 -25.5t-25 -26.5q-17 12 -30.5 30.5t-23 40.5t-15 44.5t-5.5 41.5z" />
<glyph unicode="&#xb3;" horiz-adv-x="858" d="M109 447q15 14 30.5 28.5t30.5 28.5q19 -22 44.5 -34.5t56.5 -12.5q28 0 52.5 11t43.5 29.5t30 43.5t11 53t-11 53t-30 43t-43.5 28.5t-52.5 10.5q-37 0 -67 -17q36 61 71 121.5t70 122.5h-192v82h333q-37 -60 -72.5 -119.5t-72.5 -119.5q34 -13 61 -32.5t47 -45.5 t31.5 -58.5t11.5 -68.5q0 -46 -18 -85.5t-48.5 -69.5t-70 -47t-84.5 -17q-49 0 -90.5 19.5t-71.5 52.5z" />
<glyph unicode="&#xb4;" horiz-adv-x="561" d="M205 981q47 68 92 136.5t92 135.5h172q-59 -68 -117.5 -136t-117.5 -136h-121z" />
<glyph unicode="&#xb5;" horiz-adv-x="1116" d="M168 -412v1180h170v-479q4 -55 40 -95t114 -44q53 0 101 18t85 51t59.5 78t22.5 98v373h170v-786h-170v122l6 93q-43 -98 -130 -154.5t-204 -60.5q-51 0 -94 12v-406h-170z" />
<glyph unicode="&#xb6;" horiz-adv-x="1120" d="M78 1200q0 70 25.5 131.5t70.5 106.5t106.5 71.5t131.5 26.5h503v-1536h-170v1370h-163v-1370h-170v866q-70 0 -131.5 26t-106.5 71t-70.5 106t-25.5 131z" />
<glyph unicode="&#xb7;" horiz-adv-x="344" d="M70 577q0 47 32.5 78t73.5 31q39 0 72 -30.5t33 -78.5q0 -47 -33 -76.5t-72 -29.5q-41 0 -73.5 29.5t-32.5 76.5z" />
<glyph unicode="&#xb8;" horiz-adv-x="925" d="M217 -358q23 12 47.5 24t46.5 25q10 -33 37 -54.5t68 -21.5q49 0 75.5 33t26.5 82q0 41 -22.5 64.5t-48 42t-48 39t-22.5 54.5v70h104v-14q0 -29 8.5 -46.5t21.5 -28.5t28.5 -18.5t27.5 -17.5q43 -33 60.5 -74t17.5 -92q0 -43 -13.5 -83t-41 -70.5t-67.5 -49t-93 -18.5 q-70 0 -128 38t-85 116z" />
<glyph unicode="&#xb9;" horiz-adv-x="559" d="M72 914v76h143v-612h-79v536h-64z" />
<glyph unicode="&#xba;" horiz-adv-x="960" d="M149 730q0 59 23 112t63 92t93.5 62t115.5 23t117 -23t94.5 -62t63 -92t23.5 -112q0 -61 -23.5 -113t-63 -92.5t-94.5 -63t-117 -22.5t-115.5 22.5t-93.5 63t-63 92.5t-23 113zM272 728q0 -35 13.5 -66t36 -54t53.5 -36.5t66 -13.5q36 0 67 13.5t54.5 36.5t37 54t13.5 66 q0 36 -13.5 67t-37 54.5t-54.5 37t-67 13.5q-35 0 -66 -13.5t-53.5 -37t-36 -54.5t-13.5 -67z" />
<glyph unicode="&#xbb;" horiz-adv-x="1230" d="M240 158l350 331q-88 84 -175 165t-175 165v-192q35 -35 66.5 -69t66.5 -69q-35 -35 -66.5 -68.5t-66.5 -68.5v-194zM590 158l350 331q-88 84 -175 165t-175 165v-194q35 -35 66.5 -68t66.5 -68q-35 -35 -66.5 -68.5t-66.5 -68.5v-194z" />
<glyph unicode="&#xbc;" horiz-adv-x="1982" d="M191 1167v118h220v-945h-122v827h-98zM524 -39q143 389 284.5 773t284.5 773h172q-143 -389 -284.5 -773t-284.5 -773h-172zM777 279q140 182 278.5 362.5t278.5 362.5v-601h148v-124h-148v-279h-128v279h-429zM1033 403h173v227q-44 -58 -86.5 -114t-86.5 -113z" />
<glyph unicode="&#xbd;" horiz-adv-x="2189" d="M191 1167v118h220v-945h-122v827h-98zM524 -39q143 389 284.5 773t284.5 773h172q-143 -389 -284.5 -773t-284.5 -773h-172zM804 661q0 59 19.5 112.5t58 94t95 65t130.5 24.5q66 0 121.5 -25t95 -66.5t61 -96t21.5 -115.5q0 -72 -25.5 -140t-66.5 -135t-95 -131.5 t-112 -129.5h353v-118h-643q90 90 174 175t149 164.5t104.5 154t39.5 143.5q0 54 -17.5 91.5t-44.5 62t-58 36.5t-57 12q-55 0 -90 -19t-55 -46.5t-28 -58t-8 -54.5q0 -48 14.5 -85t41.5 -66q-19 -19 -36.5 -37t-35.5 -37q-25 16 -44.5 43t-33 58t-21 64t-7.5 60z" />
<glyph unicode="&#xbe;" horiz-adv-x="2613" d="M241 425q24 22 48 45t48 45q29 -35 69 -54.5t88 -19.5q44 0 82.5 17.5t68 46.5t47 68t17.5 83t-17.5 83t-47 67.5t-68 45t-82.5 16.5q-58 1 -103 -26q55 96 109.5 191t110.5 192h-301v130h521q-57 -96 -113 -189t-113 -188q52 -19 94.5 -50t74.5 -72t49 -92t17 -108 q0 -71 -27.5 -133.5t-75 -109.5t-110 -73.5t-133.5 -26.5q-76 0 -141 30.5t-112 81.5zM914 -39q143 389 284.5 773t284.5 773h172q-143 -389 -284.5 -773t-284.5 -773h-172zM1080 279q140 182 278.5 362.5t278.5 362.5v-601h148v-124h-148v-279h-128v279h-429zM1336 403h173 v227q-44 -58 -86.5 -114t-86.5 -113z" />
<glyph unicode="&#xbf;" horiz-adv-x="925" d="M63 4q0 115 54.5 200t146.5 155q29 20 61.5 41.5t61 49t47 65.5t18.5 93v160h172v-199q0 -66 -20.5 -106.5t-55 -72t-77.5 -59.5t-91 -65q-74 -55 -108.5 -120.5t-34.5 -141.5q0 -100 62.5 -166.5t164.5 -66.5q115 0 172.5 51.5t88.5 151.5q37 -14 74.5 -27.5t74.5 -28.5 q-14 -45 -41 -99t-74 -101.5t-118.5 -80t-176.5 -32.5q-84 0 -157.5 31.5t-128 86t-85 127t-30.5 154.5zM436 998q0 47 32.5 76.5t71.5 29.5q41 0 74 -29.5t33 -76.5t-33 -78t-74 -31q-39 0 -71.5 30.5t-32.5 78.5z" />
<glyph unicode="&#xc0;" horiz-adv-x="1515" d="M125 0q160 377 317.5 749.5t317.5 749.5q160 -377 317.5 -749.5t317.5 -749.5h-170q-59 141 -120 283.5t-120 283.5h-450q-59 -141 -120 -283.5t-120 -283.5h-170zM441 1808h172q47 -68 92 -136t92 -136h-121q-59 68 -117.5 136.5t-117.5 135.5zM604 729h311 q-35 82 -68.5 163t-68.5 163l-18 67q-29 -102 -72 -198.5t-84 -194.5z" />
<glyph unicode="&#xc1;" horiz-adv-x="1515" d="M125 0q160 377 317.5 749.5t317.5 749.5q160 -377 317.5 -749.5t317.5 -749.5h-170q-59 141 -120 283.5t-120 283.5h-450q-59 -141 -120 -283.5t-120 -283.5h-170zM604 729h311q-35 82 -68.5 163t-68.5 163l-18 67q-29 -102 -72 -198.5t-84 -194.5zM701 1536 q47 68 92 136.5t92 135.5h172q-59 -68 -117.5 -136t-117.5 -136h-121z" />
<glyph unicode="&#xc2;" horiz-adv-x="1515" d="M125 0q160 377 317.5 749.5t317.5 749.5q160 -377 317.5 -749.5t317.5 -749.5h-170q-59 141 -120 283.5t-120 283.5h-450q-59 -141 -120 -283.5t-120 -283.5h-170zM514 1536q61 92 123 185.5t123 185.5q61 -92 122.5 -185.5t123.5 -185.5h-121q-31 37 -62.5 74t-62.5 73 q-31 -37 -62.5 -73.5t-62.5 -73.5h-121zM604 729h311q-35 82 -68.5 163t-68.5 163l-18 67q-29 -102 -72 -198.5t-84 -194.5z" />
<glyph unicode="&#xc3;" horiz-adv-x="1515" d="M125 0q160 377 317.5 749.5t317.5 749.5q160 -377 317.5 -749.5t317.5 -749.5h-170q-59 141 -120 283.5t-120 283.5h-450q-59 -141 -120 -283.5t-120 -283.5h-170zM434 1573q2 41 20.5 75t45 57.5t58 35.5t62.5 12q47 0 85 -18t73 -49q31 -33 54.5 -43t51.5 -10 q14 0 32 4t34 14t27.5 28.5t15.5 47.5l92 -6q-2 -41 -20.5 -75t-45 -56.5t-58.5 -34.5t-62 -12q-47 0 -85 18t-73 47q-31 33 -54.5 43t-51.5 10q-29 0 -66 -18.5t-43 -75.5zM604 729h311q-35 82 -68.5 163t-68.5 163l-18 67q-29 -102 -72 -198.5t-84 -194.5z" />
<glyph unicode="&#xc4;" horiz-adv-x="1515" d="M125 0q160 377 317.5 749.5t317.5 749.5q160 -377 317.5 -749.5t317.5 -749.5h-170q-59 141 -120 283.5t-120 283.5h-450q-59 -141 -120 -283.5t-120 -283.5h-170zM485 1659q0 47 33 78t74 31q39 0 71.5 -31t32.5 -78t-32.5 -77t-71.5 -30q-41 0 -74 30t-33 77zM604 729 h311q-35 82 -68.5 163t-68.5 163l-18 67q-29 -102 -72 -198.5t-84 -194.5zM825 1659q0 47 33 78t74 31q39 0 71.5 -31t32.5 -78t-32.5 -77t-71.5 -30q-41 0 -74 30t-33 77z" />
<glyph unicode="&#xc5;" horiz-adv-x="1515" d="M125 0q160 377 317.5 749.5t317.5 749.5q160 -377 317.5 -749.5t317.5 -749.5h-170q-59 141 -120 283.5t-120 283.5h-450q-59 -141 -120 -283.5t-120 -283.5h-170zM582 1716q0 37 14 69t38.5 56.5t56.5 38.5t69 14t68.5 -14t56 -38.5t39 -56.5t14.5 -69t-14.5 -68.5 t-39 -56t-56 -39t-68.5 -14.5t-69 14.5t-56.5 39t-38.5 56t-14 68.5zM604 729h311q-35 82 -68.5 163t-68.5 163l-18 67q-29 -102 -72 -198.5t-84 -194.5zM694 1714q0 -29 18.5 -47t47.5 -18t48 18.5t19 46.5q0 29 -19.5 48.5t-47.5 19.5q-29 0 -47.5 -19.5t-18.5 -48.5z" />
<glyph unicode="&#xc6;" horiz-adv-x="1638" d="M123 0q154 360 303 716.5t303 717.5h717v-162h-518v-469h438v-162h-438v-479h547v-162h-717v541h-236q-57 -135 -114.5 -270.5t-114.5 -270.5h-170zM590 702h168v420q-29 -106 -77 -210.5t-91 -209.5z" />
<glyph unicode="&#xc7;" horiz-adv-x="1372" d="M127 715q0 152 57.5 286t156.5 233t232.5 157.5t284.5 58.5q104 0 197.5 -26.5t177.5 -75.5q-23 -35 -47.5 -69t-46.5 -69q-63 37 -133 57.5t-148 20.5q-117 0 -218 -45t-178 -124t-121 -183.5t-44 -220.5q0 -117 44 -221.5t121 -181t178 -122t218 -45.5q152 0 281 76 l92 -135q-78 -45 -164 -71.5t-180 -30.5q0 -29 9 -46.5t21.5 -28.5t28 -18.5t27.5 -15.5q43 -33 60.5 -74t17.5 -92q0 -43 -13.5 -83t-41 -70.5t-67.5 -49t-93 -18.5q-70 0 -128.5 38t-84.5 116q23 12 47 24t47 25q10 -33 36.5 -54.5t67.5 -21.5q49 0 76 33t27 82 q0 41 -22.5 64.5t-48.5 42t-48.5 39t-22.5 54.5v58q-139 14 -257.5 75.5t-208 158.5t-139.5 224t-50 269z" />
<glyph unicode="&#xc8;" horiz-adv-x="1230" d="M141 0v1434h883v-162h-713v-469h633v-162h-633v-479h742v-162h-912zM297 1808h172q47 -68 92 -136t92 -136h-121q-59 68 -117.5 136.5t-117.5 135.5z" />
<glyph unicode="&#xc9;" horiz-adv-x="1230" d="M141 0v1434h883v-162h-713v-469h633v-162h-633v-479h742v-162h-912zM539 1536q47 68 92 136.5t92 135.5h172q-59 -68 -117.5 -136t-117.5 -136h-121z" />
<glyph unicode="&#xca;" horiz-adv-x="1230" d="M141 0v1434h883v-162h-713v-469h633v-162h-633v-479h742v-162h-912zM368 1536q61 92 123 185.5t123 185.5q61 -92 122.5 -185.5t123.5 -185.5h-121q-31 37 -62.5 74t-62.5 73q-31 -37 -62.5 -73.5t-62.5 -73.5h-121z" />
<glyph unicode="&#xcb;" horiz-adv-x="1230" d="M141 0v1434h883v-162h-713v-469h633v-162h-633v-479h742v-162h-912zM319 1659q0 47 33 78t74 31q39 0 71.5 -31t32.5 -78t-32.5 -77t-71.5 -30q-41 0 -74 30t-33 77zM659 1659q0 47 33 78t74 31q39 0 71.5 -31t32.5 -78t-32.5 -77t-71.5 -30q-41 0 -74 30t-33 77z" />
<glyph unicode="&#xcc;" horiz-adv-x="483" d="M-30 1808h172q47 -68 92 -136t92 -136h-121q-59 68 -117.5 136.5t-117.5 135.5zM203 0v1434h170v-1434h-170z" />
<glyph unicode="&#xcd;" horiz-adv-x="483" d="M203 0v1434h170v-1434h-170zM252 1536q47 68 92 136.5t92 135.5h172q-59 -68 -117.5 -136t-117.5 -136h-121z" />
<glyph unicode="&#xce;" horiz-adv-x="585" d="M43 1536q61 92 123 185.5t123 185.5q61 -92 122.5 -185.5t123.5 -185.5h-121q-31 37 -62.5 74t-62.5 73q-31 -37 -62.5 -73.5t-62.5 -73.5h-121zM203 0v1434h170v-1434h-170z" />
<glyph unicode="&#xcf;" horiz-adv-x="483" d="M8 1659q0 47 33 78t74 31q39 0 71.5 -31t32.5 -78t-32.5 -77t-71.5 -30q-41 0 -74 30t-33 77zM203 0v1434h170v-1434h-170zM348 1659q0 47 33 78t74 31q39 0 71.5 -31t32.5 -78t-32.5 -77t-71.5 -30q-41 0 -74 30t-33 77z" />
<glyph unicode="&#xd0;" horiz-adv-x="1323" d="M45 633v166h78v635h311q162 0 308.5 -50.5t255 -143.5t173 -226t64.5 -297q0 -121 -47 -248t-151.5 -231.5t-272.5 -171t-410 -66.5h-231v633h-78zM293 162h153q131 0 245 39t197 111.5t130 175t47 229.5t-47 230.5t-130 176t-196.5 111.5t-245.5 39h-153v-475h371v-166 h-371v-471z" />
<glyph unicode="&#xd1;" horiz-adv-x="1665" d="M205 0v1499q264 -287 524 -568.5t524 -568.5q10 -14 19.5 -26t19.5 -27q-2 16 -3 32.5t-3 33.5v1059h170v-1500q-264 281 -524 557.5t-524 557.5q-10 14 -19.5 26t-19.5 27q2 -16 3 -32.5t3 -33.5v-1036h-170zM516 1548q2 41 20.5 75t45 57.5t58 35.5t62.5 12 q47 0 85 -18t73 -49q31 -33 54.5 -43t51.5 -10q14 0 32 4t34 14t27.5 28.5t15.5 47.5l92 -6q-2 -41 -20.5 -75t-45 -56.5t-58.5 -34.5t-62 -12q-47 0 -85 18t-73 47q-31 33 -54.5 43t-51.5 10q-29 0 -66 -18.5t-43 -75.5z" />
<glyph unicode="&#xd2;" horiz-adv-x="1718" d="M123 715q0 150 57.5 284t156.5 234t232.5 158.5t284.5 58.5q150 0 284 -58.5t234.5 -158.5t158.5 -234.5t58 -283.5q0 -152 -58 -285t-158.5 -232.5t-234.5 -156.5t-284 -57q-152 0 -285 57t-232 156.5t-156.5 232.5t-57.5 285zM293 715q0 -119 44 -222.5t121 -180 t179 -122t219 -45.5t219.5 45.5t179 122t120.5 180t44 222.5t-44 222t-120.5 181t-179 123t-219.5 45t-219 -45t-179 -123t-121 -181t-44 -222zM533 1808h172q47 -68 92 -136t92 -136h-121q-59 68 -117.5 136.5t-117.5 135.5z" />
<glyph unicode="&#xd3;" horiz-adv-x="1720" d="M123 715q0 150 57.5 284t156.5 234t232.5 158.5t284.5 58.5q150 0 284 -58.5t234.5 -158.5t158.5 -234.5t58 -283.5q0 -152 -58 -285t-158.5 -232.5t-234.5 -156.5t-284 -57q-152 0 -285 57t-232 156.5t-156.5 232.5t-57.5 285zM293 715q0 -119 44 -222.5t121 -180 t179 -122t219 -45.5t219.5 45.5t179 122t120.5 180t44 222.5t-44 222t-120.5 181t-179 123t-219.5 45t-219 -45t-179 -123t-121 -181t-44 -222zM819 1536q47 68 92 136.5t92 135.5h172q-59 -68 -117.5 -136t-117.5 -136h-121z" />
<glyph unicode="&#xd4;" horiz-adv-x="1718" d="M123 715q0 150 57.5 284t156.5 234t232.5 158.5t284.5 58.5q150 0 284 -58.5t234.5 -158.5t158.5 -234.5t58 -283.5q0 -152 -58 -285t-158.5 -232.5t-234.5 -156.5t-284 -57q-152 0 -285 57t-232 156.5t-156.5 232.5t-57.5 285zM293 715q0 -119 44 -222.5t121 -180 t179 -122t219 -45.5t219.5 45.5t179 122t120.5 180t44 222.5t-44 222t-120.5 181t-179 123t-219.5 45t-219 -45t-179 -123t-121 -181t-44 -222zM608 1536q61 92 123 185.5t123 185.5q61 -92 122.5 -185.5t123.5 -185.5h-121q-31 37 -62.5 74t-62.5 73q-31 -37 -62.5 -73.5 t-62.5 -73.5h-121z" />
<glyph unicode="&#xd5;" horiz-adv-x="1718" d="M123 715q0 150 57.5 284t156.5 234t232.5 158.5t284.5 58.5q150 0 284 -58.5t234.5 -158.5t158.5 -234.5t58 -283.5q0 -152 -58 -285t-158.5 -232.5t-234.5 -156.5t-284 -57q-152 0 -285 57t-232 156.5t-156.5 232.5t-57.5 285zM293 715q0 -119 44 -222.5t121 -180 t179 -122t219 -45.5t219.5 45.5t179 122t120.5 180t44 222.5t-44 222t-120.5 181t-179 123t-219.5 45t-219 -45t-179 -123t-121 -181t-44 -222zM537 1620q2 41 20.5 75t45 57.5t58 35.5t62.5 12q47 0 85 -18t73 -49q31 -33 54.5 -43t51.5 -10q14 0 32 4t34 14t27.5 28.5 t15.5 47.5l92 -6q-2 -41 -20.5 -75t-45 -56.5t-58.5 -34.5t-62 -12q-47 0 -85 18t-73 47q-31 33 -54.5 43t-51.5 10q-29 0 -66 -18.5t-43 -75.5z" />
<glyph unicode="&#xd6;" horiz-adv-x="1718" d="M123 715q0 150 57.5 284t156.5 234t232.5 158.5t284.5 58.5q150 0 284 -58.5t234.5 -158.5t158.5 -234.5t58 -283.5q0 -152 -58 -285t-158.5 -232.5t-234.5 -156.5t-284 -57q-152 0 -285 57t-232 156.5t-156.5 232.5t-57.5 285zM293 715q0 -119 44 -222.5t121 -180 t179 -122t219 -45.5t219.5 45.5t179 122t120.5 180t44 222.5t-44 222t-120.5 181t-179 123t-219.5 45t-219 -45t-179 -123t-121 -181t-44 -222zM581 1659q0 47 33 78t74 31q39 0 71.5 -31t32.5 -78t-32.5 -77t-71.5 -30q-41 0 -74 30t-33 77zM921 1659q0 47 33 78t74 31 q39 0 71.5 -31t32.5 -78t-32.5 -77t-71.5 -30q-41 0 -74 30t-33 77z" />
<glyph unicode="&#xd7;" horiz-adv-x="1024" d="M223 522l121 121l203 -203l201 201q29 -29 58.5 -59.5t57.5 -59.5l-198 -198q51 -51 100 -101.5t100 -101.5l-121 -121q-51 51 -101 100.5t-101 100.5l-199 -199q-29 29 -59.5 58.5t-59.5 58.5l201 200z" />
<glyph unicode="&#xd8;" horiz-adv-x="1720" d="M127 715q0 152 57.5 286t156.5 233t232.5 157.5t284.5 58.5q117 0 222.5 -35t195.5 -96q33 39 65.5 77t65.5 77q29 -27 59.5 -52.5t59.5 -52.5q-33 -39 -66 -76t-65 -75q92 -98 145 -227.5t53 -274.5q0 -152 -58 -285t-157.5 -232.5t-233.5 -156.5t-286 -57 q-117 0 -220 32.5t-192 92.5q-31 -35 -61.5 -72t-60.5 -72q-29 27 -60 52.5t-59 52.5q31 35 60.5 70.5t60.5 70.5q-92 98 -145.5 227.5t-53.5 276.5zM297 715q0 -109 37 -204t102 -171q184 215 365.5 426t365.5 426q-68 45 -145.5 70.5t-163.5 25.5q-117 0 -218 -45 t-178 -124t-121 -183t-44 -221zM555 236q66 -43 141.5 -67t161.5 -24q117 0 219.5 45.5t179 122t121.5 181t45 221.5q0 106 -36.5 201.5t-102.5 170.5q-184 -215 -364.5 -425.5t-364.5 -425.5z" />
<glyph unicode="&#xd9;" horiz-adv-x="1335" d="M156 463v971h170v-965q0 -78 25.5 -138.5t71.5 -101.5t109.5 -62.5t139.5 -21.5t139 21.5t109.5 62.5t73 101.5t26.5 138.5v965h170v-971q0 -117 -40 -207t-109.5 -150.5t-163.5 -91t-205 -30.5t-205 30.5t-164 91t-108.5 150.5t-38.5 207zM381 1808h172q47 -68 92 -136 t92 -136h-121q-59 68 -117.5 136.5t-117.5 135.5z" />
<glyph unicode="&#xda;" horiz-adv-x="1335" d="M156 463v971h170v-965q0 -78 25.5 -138.5t71.5 -101.5t109.5 -62.5t139.5 -21.5t139 21.5t109.5 62.5t73 101.5t26.5 138.5v965h170v-971q0 -117 -40 -207t-109.5 -150.5t-163.5 -91t-205 -30.5t-205 30.5t-164 91t-108.5 150.5t-38.5 207zM615 1536q47 68 92 136.5 t92 135.5h172q-59 -68 -117.5 -136t-117.5 -136h-121z" />
<glyph unicode="&#xdb;" horiz-adv-x="1335" d="M156 463v971h170v-965q0 -78 25.5 -138.5t71.5 -101.5t109.5 -62.5t139.5 -21.5t139 21.5t109.5 62.5t73 101.5t26.5 138.5v965h170v-971q0 -117 -40 -207t-109.5 -150.5t-163.5 -91t-205 -30.5t-205 30.5t-164 91t-108.5 150.5t-38.5 207zM422 1538q61 92 123 185.5 t123 185.5q61 -92 122.5 -185.5t123.5 -185.5h-121q-31 37 -62.5 74t-62.5 73q-31 -37 -62.5 -73.5t-62.5 -73.5h-121z" />
<glyph unicode="&#xdc;" horiz-adv-x="1335" d="M156 463v971h170v-965q0 -78 25.5 -138.5t71.5 -101.5t109.5 -62.5t139.5 -21.5t139 21.5t109.5 62.5t73 101.5t26.5 138.5v965h170v-971q0 -117 -40 -207t-109.5 -150.5t-163.5 -91t-205 -30.5t-205 30.5t-164 91t-108.5 150.5t-38.5 207zM401 1659q0 47 33 78t74 31 q39 0 71.5 -31t32.5 -78t-32.5 -77t-71.5 -30q-41 0 -74 30t-33 77zM741 1659q0 47 33 78t74 31q39 0 71.5 -31t32.5 -78t-32.5 -77t-71.5 -30q-41 0 -74 30t-33 77z" />
<glyph unicode="&#xdd;" horiz-adv-x="1306" d="M25 1434h208q98 -166 196.5 -331t197.5 -331q6 -16 11 -31.5t11 -31.5h2q6 16 12.5 31.5t12.5 31.5q98 166 195.5 331t195.5 331h209q-131 -223 -260 -441.5t-260 -441.5v-551h-209v553q-131 221 -261 440t-261 441zM570 1536q47 68 92 136.5t92 135.5h172 q-59 -68 -117.5 -136t-117.5 -136h-121z" />
<glyph unicode="&#xde;" horiz-adv-x="1026" d="M205 0v1434h170v-338h168q70 0 154.5 -21.5t158.5 -69t123 -121t49 -177.5q0 -186 -110.5 -296t-319.5 -110h-223v-301h-170zM375 465h178q90 0 148.5 23.5t93 58.5t49 78t14.5 82q0 45 -23.5 87t-63.5 73.5t-96.5 50t-119.5 18.5h-180v-471z" />
<glyph unicode="&#xdf;" horiz-adv-x="1173" d="M18 684v166h132v16q0 111 35.5 200t95 151.5t137.5 95.5t162 33q68 0 127 -26t104 -71t70.5 -104.5t25.5 -126.5q0 -66 -24.5 -122t-65.5 -97q94 -59 152.5 -156.5t58.5 -216.5q0 -92 -36 -173t-97 -141.5t-142 -95t-173 -34.5q-97 -1 -177 36q16 39 35 76t35 76 q51 -23 107 -23q57 0 107 23t88 60.5t60.5 88t22.5 107.5t-22.5 107.5t-61.5 87t-89 58t-107 21.5h-3q0 20 -1 40t-1 42v84q70 0 117 40t47 112q0 33 -12 62.5t-32.5 52t-49.5 35t-61 12.5q-117 -6 -190 -89t-73 -235v-856h-169v684h-132z" />
<glyph unicode="&#xe0;" horiz-adv-x="1128" d="M100 383q0 80 32 153.5t87 129t131 88t162 32.5q55 0 102.5 -16t82 -35.5t55 -38t20.5 -24.5q0 23 4 47t4 49h142v-768h-150v66v18q0 -6 -18.5 -22.5t-51 -34t-81 -31.5t-109.5 -14q-86 0 -162 31.5t-131 87t-87 128t-32 154.5zM213 1253h172q47 -68 92 -136t92 -136 h-121q-59 68 -117.5 136.5t-117.5 135.5zM272 385q0 -100 67 -169t173 -69t173 69t67 169q0 102 -67 169t-173 67t-173 -67t-67 -169z" />
<glyph unicode="&#xe1;" horiz-adv-x="1128" d="M100 383q0 80 32 153.5t87 129t131 88t162 32.5q55 0 102.5 -16t82 -35.5t55 -38t20.5 -24.5q0 23 4 47t4 49h142v-768h-150v66v18q0 -6 -18.5 -22.5t-51 -34t-81 -31.5t-109.5 -14q-86 0 -162 31.5t-131 87t-87 128t-32 154.5zM272 385q0 -100 67 -169t173 -69t173 69 t67 169q0 102 -67 169t-173 67t-173 -67t-67 -169zM475 981q47 68 92 136.5t92 135.5h172q-59 -68 -117.5 -136t-117.5 -136h-121z" />
<glyph unicode="&#xe2;" horiz-adv-x="1128" d="M100 383q0 80 32 153.5t87 129t131 88t162 32.5q55 0 102.5 -16t82 -35.5t55 -38t20.5 -24.5q0 23 4 47t4 49h142v-768h-150v66v18q0 -6 -18.5 -22.5t-51 -34t-81 -31.5t-109.5 -14q-86 0 -162 31.5t-131 87t-87 128t-32 154.5zM272 385q0 -100 67 -169t173 -69t173 69 t67 169q0 102 -67 169t-173 67t-173 -67t-67 -169zM288 981q61 92 123 185.5t123 185.5q61 -92 122.5 -185.5t123.5 -185.5h-121q-31 37 -62.5 74t-62.5 73q-31 -37 -62.5 -73.5t-62.5 -73.5h-121z" />
<glyph unicode="&#xe3;" horiz-adv-x="1128" d="M100 383q0 80 32 153.5t87 129t131 88t162 32.5q55 0 102.5 -16t82 -35.5t55 -38t20.5 -24.5q0 23 4 47t4 49h142v-768h-150v66v18q0 -6 -18.5 -22.5t-51 -34t-81 -31.5t-109.5 -14q-86 0 -162 31.5t-131 87t-87 128t-32 154.5zM238 950q2 41 20.5 75t45 57.5t58 35.5 t62.5 12q47 0 85 -18t73 -49q31 -33 54.5 -43t51.5 -10q14 0 32 4t34 14t27.5 28.5t15.5 47.5l92 -6q-2 -41 -20.5 -75t-45 -56.5t-58.5 -34.5t-62 -12q-47 0 -85 18t-73 47q-31 33 -54.5 43t-51.5 10q-29 0 -66 -18.5t-43 -75.5zM272 385q0 -100 67 -169t173 -69t173 69 t67 169q0 102 -67 169t-173 67t-173 -67t-67 -169z" />
<glyph unicode="&#xe4;" horiz-adv-x="1128" d="M100 383q0 80 32 153.5t87 129t131 88t162 32.5q55 0 102.5 -16t82 -35.5t55 -38t20.5 -24.5q0 23 4 47t4 49h142v-768h-150v66v18q0 -6 -18.5 -22.5t-51 -34t-81 -31.5t-109.5 -14q-86 0 -162 31.5t-131 87t-87 128t-32 154.5zM260 1065q0 47 33 78t74 31q39 0 71.5 -31 t32.5 -78t-32.5 -77t-71.5 -30q-41 0 -74 30t-33 77zM272 385q0 -100 67 -169t173 -69t173 69t67 169q0 102 -67 169t-173 67t-173 -67t-67 -169zM600 1065q0 47 33 78t74 31q39 0 71.5 -31t32.5 -78t-32.5 -77t-71.5 -30q-41 0 -74 30t-33 77z" />
<glyph unicode="&#xe5;" horiz-adv-x="1128" d="M100 383q0 80 32 153.5t87 129t131 88t162 32.5q55 0 102.5 -16t82 -35.5t55 -38t20.5 -24.5q0 23 4 47t4 49h142v-768h-150v66v18q0 -6 -18.5 -22.5t-51 -34t-81 -31.5t-109.5 -14q-86 0 -162 31.5t-131 87t-87 128t-32 154.5zM272 385q0 -100 67 -169t173 -69t173 69 t67 169q0 102 -67 169t-173 67t-173 -67t-67 -169zM334 1106q0 37 14 68.5t39 56t56.5 39t68.5 14.5t68.5 -14.5t56.5 -39t39 -56t14 -68.5t-14 -68.5t-39 -56.5t-56.5 -39t-68.5 -14t-68.5 14t-56.5 39t-39 56.5t-14 68.5zM446 1104q0 -29 18.5 -47.5t47.5 -18.5t48.5 18.5 t19.5 47.5t-19.5 48t-48.5 19t-47.5 -19t-18.5 -48z" />
<glyph unicode="&#xe6;" horiz-adv-x="1288" d="M88 229q0 63 24.5 107.5t66.5 70t95.5 37t108.5 11.5h182v49q0 31 -5 52.5t-20.5 36.5t-45 22.5t-76.5 7.5q-27 0 -56.5 -5.5t-58.5 -13.5t-54.5 -18.5t-39.5 -20.5q-23 29 -45.5 54.5t-44.5 54.5q23 23 58.5 44t76.5 36.5t84 24.5t82 9q160 0 229 -45q90 45 191 45 q63 0 121.5 -25.5t104.5 -70.5t81 -107.5t53 -135.5q-117 -43 -231.5 -86.5t-231.5 -86.5v-8q0 -49 -10 -96q25 -12 53.5 -17t59.5 -5q94 0 155 65l105 -123q-51 -51 -116.5 -79.5t-143.5 -28.5q-109 0 -201 51q-76 -51 -223 -51q-74 0 -134.5 11t-103.5 39.5t-66.5 76 t-23.5 118.5zM260 221q0 -43 49 -57t105 -14q23 0 49 1t49 7t38 21.5t15 45.5v54h-114q-29 0 -63 -2.5t-62.5 -8.5t-47 -17t-18.5 -30zM731 600q6 -43 6 -100v-45q61 23 123 45t123 45q-29 35 -64.5 56.5t-78.5 21.5q-59 0 -109 -23z" />
<glyph unicode="&#xe7;" horiz-adv-x="808" d="M74 385q0 82 31.5 155.5t87 128t130 86t160.5 31.5q76 0 141.5 -23.5t118.5 -64.5q-27 -33 -53 -63.5t-53 -63.5q-66 49 -154 50q-106 0 -172.5 -67t-66.5 -169q0 -100 66.5 -169t172.5 -69q91 1 154 52q27 -33 51.5 -65t50.5 -64q-53 -41 -118.5 -64.5t-139.5 -23.5 q0 -29 9.5 -45.5t22.5 -27.5t27.5 -18.5t26.5 -15.5q43 -33 60.5 -74t17.5 -92q0 -70 -35 -128t-104 -81q-35 -12 -76 -12q-70 0 -128 38t-85 116q23 12 47.5 24t46.5 25q10 -33 37 -54.5t68 -21.5q49 0 75.5 33t26.5 82q0 41 -22.5 64.5t-48 42t-48 39t-22.5 54.5v66 q-66 16 -122 53t-96 88t-62.5 114.5t-22.5 133.5z" />
<glyph unicode="&#xe8;" horiz-adv-x="923" d="M74 385q0 82 31.5 155.5t87 128t130 86t160.5 31.5q63 0 122 -25.5t105 -70.5t81 -107.5t53 -136.5q-139 -51 -277.5 -102t-277.5 -102q31 -43 81 -69t113 -26q94 0 156 66l104 -123q-51 -51 -116.5 -79.5t-143.5 -28.5q-86 0 -160.5 31.5t-130 87t-87 128t-31.5 156.5z M119 1253h172q47 -68 92 -136t92 -136h-121q-59 68 -117.5 136.5t-117.5 135.5zM244 401q96 35 191 71t192 71q-29 35 -65 56.5t-79 21.5q-82 0 -141 -41t-84 -107q-10 -31 -14 -72z" />
<glyph unicode="&#xe9;" horiz-adv-x="923" d="M74 385q0 82 31.5 155.5t87 128t130 86t160.5 31.5q63 0 122 -25.5t105 -70.5t81 -107.5t53 -136.5q-139 -51 -277.5 -102t-277.5 -102q31 -43 81 -69t113 -26q94 0 156 66l104 -123q-51 -51 -116.5 -79.5t-143.5 -28.5q-86 0 -160.5 31.5t-130 87t-87 128t-31.5 156.5z M244 401q96 35 191 71t192 71q-29 35 -65 56.5t-79 21.5q-82 0 -141 -41t-84 -107q-10 -31 -14 -72zM449 981q47 68 92 136.5t92 135.5h172q-59 -68 -117.5 -136t-117.5 -136h-121z" />
<glyph unicode="&#xea;" horiz-adv-x="923" d="M74 385q0 82 31.5 155.5t87 128t130 86t160.5 31.5q63 0 122 -25.5t105 -70.5t81 -107.5t53 -136.5q-139 -51 -277.5 -102t-277.5 -102q31 -43 81 -69t113 -26q94 0 156 66l104 -123q-51 -51 -116.5 -79.5t-143.5 -28.5q-86 0 -160.5 31.5t-130 87t-87 128t-31.5 156.5z M229 981q61 92 123 185.5t123 185.5q61 -92 122.5 -185.5t123.5 -185.5h-121q-31 37 -62.5 74t-62.5 73q-31 -37 -62.5 -73.5t-62.5 -73.5h-121zM244 401q96 35 191 71t192 71q-29 35 -65 56.5t-79 21.5q-82 0 -141 -41t-84 -107q-10 -31 -14 -72z" />
<glyph unicode="&#xeb;" horiz-adv-x="923" d="M74 385q0 82 31.5 155.5t87 128t130 86t160.5 31.5q63 0 122 -25.5t105 -70.5t81 -107.5t53 -136.5q-139 -51 -277.5 -102t-277.5 -102q31 -43 81 -69t113 -26q94 0 156 66l104 -123q-51 -51 -116.5 -79.5t-143.5 -28.5q-86 0 -160.5 31.5t-130 87t-87 128t-31.5 156.5z M194 1065q0 47 33 78t74 31q39 0 71.5 -31t32.5 -78t-32.5 -77t-71.5 -30q-41 0 -74 30t-33 77zM244 401q96 35 191 71t192 71q-29 35 -65 56.5t-79 21.5q-82 0 -141 -41t-84 -107q-10 -31 -14 -72zM534 1065q0 47 33 78t74 31q39 0 71.5 -31t32.5 -78t-32.5 -77t-71.5 -30 q-41 0 -74 30t-33 77z" />
<glyph unicode="&#xec;" horiz-adv-x="356" d="M-117 1253h172q47 -68 92.5 -136t92.5 -136h-121q-59 68 -117.5 136.5t-118.5 135.5zM119 0v768h170v-768h-170z" />
<glyph unicode="&#xed;" horiz-adv-x="397" d="M119 0v768h170v-768h-170zM168 981q47 68 92 136.5t92 135.5h172q-59 -68 -117.5 -136t-117.5 -136h-121z" />
<glyph unicode="&#xee;" horiz-adv-x="489" d="M-8 981q61 92 123 185.5t123 185.5q61 -92 122.5 -185.5t122.5 -185.5h-121q-31 37 -62.5 74t-61.5 73q-31 -37 -63 -73.5t-62 -73.5h-121zM154 0v768h170v-768h-170z" />
<glyph unicode="&#xef;" horiz-adv-x="555" d="M12 1065q0 47 33 78t74 31q39 0 71.5 -31t32.5 -78t-32.5 -77t-71.5 -30q-41 0 -74 30t-33 77zM203 0v768h170v-768h-170zM352 1065q0 47 33 78t74 31q39 0 71.5 -31t32.5 -78t-32.5 -77t-71.5 -30q-41 0 -74 30t-33 77z" />
<glyph unicode="&#xf0;" horiz-adv-x="1009" d="M106 379q-2 82 28 156.5t84 130t128 89t160 36.5q66 2 131 -17q-27 82 -67 159t-89 148q-23 -27 -47 -51t-47 -51q-29 29 -59.5 54t-59.5 54q29 31 57.5 62t57.5 61q-90 104 -188 189q31 29 62.5 56.5t61.5 55.5q92 -72 185 -170q23 27 46 51.5t46 51.5 q29 -27 59.5 -52.5t59.5 -52.5q-29 -31 -55.5 -60.5t-55.5 -59.5q63 -84 121.5 -184.5t103.5 -207t72 -215t27 -209.5q2 -84 -28 -157.5t-83 -130t-127 -91t-160 -36.5t-161.5 27.5t-133 83t-92 125t-37.5 155.5zM279 385q0 -51 19 -94t51 -74t77 -48t98 -15t96.5 21.5 t74 52t47 76.5t16.5 93q-2 51 -21.5 94.5t-51.5 74t-77 47t-96 14.5q-109 -4 -173 -72t-60 -170z" />
<glyph unicode="&#xf1;" horiz-adv-x="1071" d="M168 0v768h149v-18q4 -49 7.5 -89t7.5 -90q41 98 132 156.5t202 58.5q121 0 190.5 -63.5t73.5 -165.5v-557h-170v479q-4 55 -40 95t-114 44q-53 0 -101 -18t-85 -51t-59.5 -78t-22.5 -98v-373h-170zM260 938q2 41 20.5 75t45 57.5t58 35.5t62.5 12q47 0 85 -18t73 -49 q31 -33 54.5 -43t51.5 -10q14 0 32 4t34 14t27.5 28.5t15.5 47.5l92 -6q-2 -41 -20.5 -75t-45 -56.5t-58.5 -34.5t-62 -12q-47 0 -85 18t-73 47q-31 33 -54.5 43t-51.5 10q-29 0 -66 -18.5t-43 -75.5z" />
<glyph unicode="&#xf2;" horiz-adv-x="960" d="M74 385q0 82 31.5 155.5t87 128t130 86t160.5 31.5t162 -31.5t131 -86t87 -128t32 -155.5q0 -84 -32 -156.5t-87 -128t-131 -87t-162 -31.5t-160.5 31.5t-130 87t-87 128t-31.5 156.5zM142 1253h172q47 -68 92 -136t92 -136h-121q-59 68 -117.5 136.5t-117.5 135.5z M244 383q0 -49 18.5 -92t50 -75t74.5 -50.5t92 -18.5t92 18.5t76 50.5t51.5 75t18.5 92t-18.5 92t-51.5 76t-76 51.5t-92 18.5t-92 -18.5t-74.5 -51.5t-50 -76t-18.5 -92z" />
<glyph unicode="&#xf3;" horiz-adv-x="960" d="M74 385q0 82 31.5 155.5t87 128t130 86t160.5 31.5t162 -31.5t131 -86t87 -128t32 -155.5q0 -84 -32 -156.5t-87 -128t-131 -87t-162 -31.5t-160.5 31.5t-130 87t-87 128t-31.5 156.5zM244 383q0 -49 18.5 -92t50 -75t74.5 -50.5t92 -18.5t92 18.5t76 50.5t51.5 75 t18.5 92t-18.5 92t-51.5 76t-76 51.5t-92 18.5t-92 -18.5t-74.5 -51.5t-50 -76t-18.5 -92zM473 981q47 68 92 136.5t92 135.5h172q-59 -68 -117.5 -136t-117.5 -136h-121z" />
<glyph unicode="&#xf4;" horiz-adv-x="960" d="M74 385q0 82 31.5 155.5t87 128t130 86t160.5 31.5t162 -31.5t131 -86t87 -128t32 -155.5q0 -84 -32 -156.5t-87 -128t-131 -87t-162 -31.5t-160.5 31.5t-130 87t-87 128t-31.5 156.5zM229 981q61 92 123 185.5t123 185.5q61 -92 122.5 -185.5t123.5 -185.5h-121 q-31 37 -62.5 74t-62.5 73q-31 -37 -62.5 -73.5t-62.5 -73.5h-121zM244 383q0 -49 18.5 -92t50 -75t74.5 -50.5t92 -18.5t92 18.5t76 50.5t51.5 75t18.5 92t-18.5 92t-51.5 76t-76 51.5t-92 18.5t-92 -18.5t-74.5 -51.5t-50 -76t-18.5 -92z" />
<glyph unicode="&#xf5;" horiz-adv-x="960" d="M74 385q0 82 31.5 155.5t87 128t130 86t160.5 31.5t162 -31.5t131 -86t87 -128t32 -155.5q0 -84 -32 -156.5t-87 -128t-131 -87t-162 -31.5t-160.5 31.5t-130 87t-87 128t-31.5 156.5zM166 950q2 41 20.5 75t45 57.5t58 35.5t62.5 12q47 0 85 -18t73 -49q31 -33 54.5 -43 t51.5 -10q14 0 32 4t34 14t27.5 28.5t15.5 47.5l92 -6q-2 -41 -20.5 -75t-45 -56.5t-58.5 -34.5t-62 -12q-47 0 -85 18t-73 47q-31 33 -54.5 43t-51.5 10q-29 0 -66 -18.5t-43 -75.5zM244 383q0 -49 18.5 -92t50 -75t74.5 -50.5t92 -18.5t92 18.5t76 50.5t51.5 75t18.5 92 t-18.5 92t-51.5 76t-76 51.5t-92 18.5t-92 -18.5t-74.5 -51.5t-50 -76t-18.5 -92z" />
<glyph unicode="&#xf6;" horiz-adv-x="960" d="M74 385q0 82 31.5 155.5t87 128t130 86t160.5 31.5t162 -31.5t131 -86t87 -128t32 -155.5q0 -84 -32 -156.5t-87 -128t-131 -87t-162 -31.5t-160.5 31.5t-130 87t-87 128t-31.5 156.5zM206 1065q0 47 33 78t74 31q39 0 71.5 -31t32.5 -78t-32.5 -77t-71.5 -30 q-41 0 -74 30t-33 77zM244 383q0 -49 18.5 -92t50 -75t74.5 -50.5t92 -18.5t92 18.5t76 50.5t51.5 75t18.5 92t-18.5 92t-51.5 76t-76 51.5t-92 18.5t-92 -18.5t-74.5 -51.5t-50 -76t-18.5 -92zM546 1065q0 47 33 78t74 31q39 0 71.5 -31t32.5 -78t-32.5 -77t-71.5 -30 q-41 0 -74 30t-33 77z" />
<glyph unicode="&#xf7;" horiz-adv-x="1026" d="M139 422v166h738v-166h-738zM408 252q0 47 32.5 77.5t73.5 30.5q39 0 71.5 -30.5t32.5 -77.5t-32.5 -77t-71.5 -30q-41 0 -73.5 30t-32.5 77zM408 764q0 47 32.5 77.5t73.5 30.5q39 0 71.5 -30.5t32.5 -77.5t-32.5 -77t-71.5 -30q-41 0 -73.5 30t-32.5 77z" />
<glyph unicode="&#xf8;" horiz-adv-x="960" d="M74 385q0 82 31.5 155.5t87 128t130 86t160.5 31.5q115 0 205 -53q18 23 37.5 44.5t38.5 43.5q23 -20 46.5 -40.5t45.5 -41.5q-16 -20 -34.5 -40.5t-35.5 -41.5q51 -53 80 -123.5t29 -148.5q0 -84 -32 -156.5t-87 -128t-131 -87t-162 -31.5q-63 0 -119.5 17t-103.5 48 q-23 -25 -43 -50.5t-43 -49.5q-23 20 -47.5 38.5t-46.5 39.5q23 27 44 51t44 51q-45 53 -69.5 118.5t-24.5 139.5zM244 385q0 -72 35 -129q76 88 149.5 174t149.5 174q-45 16 -95 17q-106 0 -172.5 -67t-66.5 -169zM369 174q53 -27 114 -27q106 0 173 69t67 169 q0 41 -12.5 79t-34.5 66z" />
<glyph unicode="&#xf9;" horiz-adv-x="1083" d="M168 211v557h170v-479q4 -55 40 -95t114 -44q53 0 101 18t85 51t59.5 78t22.5 98v373h170v-786h-170v122l6 93q-41 -98 -132 -156.5t-202 -58.5q-121 0 -190.5 63.5t-73.5 165.5zM258 1253h172q47 -68 92 -136t92 -136h-121q-59 68 -117.5 136.5t-117.5 135.5z" />
<glyph unicode="&#xfa;" horiz-adv-x="1083" d="M168 211v557h170v-479q4 -55 40 -95t114 -44q53 0 101 18t85 51t59.5 78t22.5 98v373h170v-786h-170v122l6 93q-41 -98 -132 -156.5t-202 -58.5q-121 0 -190.5 63.5t-73.5 165.5zM473 981q47 68 92 136.5t92 135.5h172q-59 -68 -117.5 -136t-117.5 -136h-121z" />
<glyph unicode="&#xfb;" horiz-adv-x="1083" d="M168 211v557h170v-479q4 -55 40 -95t114 -44q53 0 101 18t85 51t59.5 78t22.5 98v373h170v-786h-170v122l6 93q-41 -98 -132 -156.5t-202 -58.5q-121 0 -190.5 63.5t-73.5 165.5zM299 981q61 92 123 185.5t123 185.5q61 -92 122.5 -185.5t123.5 -185.5h-121 q-31 37 -62.5 74t-62.5 73q-31 -37 -62.5 -73.5t-62.5 -73.5h-121z" />
<glyph unicode="&#xfc;" horiz-adv-x="1083" d="M168 211v557h170v-479q4 -55 40 -95t114 -44q53 0 101 18t85 51t59.5 78t22.5 98v373h170v-786h-170v122l6 93q-41 -98 -132 -156.5t-202 -58.5q-121 0 -190.5 63.5t-73.5 165.5zM262 1065q0 47 33 78t74 31q39 0 71.5 -31t32.5 -78t-32.5 -77t-71.5 -30q-41 0 -74 30 t-33 77zM602 1065q0 47 33 78t74 31q39 0 71.5 -31t32.5 -78t-32.5 -77t-71.5 -30q-41 0 -74 30t-33 77z" />
<glyph unicode="&#xfd;" horiz-adv-x="999" d="M53 768h170q76 -150 163 -304.5t140 -311.5q27 78 63 156.5t77 155.5t83 153.5t78 150.5h170q-162 -322 -322.5 -640t-322.5 -640h-170q66 129 129.5 256t128.5 256zM494 981q47 68 92 136.5t92 135.5h172q-59 -68 -117.5 -136t-117.5 -136h-121z" />
<glyph unicode="&#xfe;" horiz-adv-x="1140" d="M137 -512v2048h170v-799q-4 -16 -10 -32.5t-10 -32.5q0 6 20.5 23.5t55 37t82 34.5t102.5 15q86 0 161.5 -31.5t131 -87t87 -128t31.5 -152.5q0 -82 -31.5 -154.5t-87 -128t-131 -87t-161.5 -31.5q-61 0 -109.5 14t-81 31.5t-51 34t-18.5 22.5q4 -10 10 -22.5t10 -22.5 v-551h-170zM307 385q0 -100 66.5 -169t173.5 -69q106 0 172.5 69t66.5 169q0 102 -66.5 169t-172.5 67t-173 -67t-67 -169z" />
<glyph unicode="&#xff;" horiz-adv-x="999" d="M53 768h170q76 -150 163 -304.5t140 -311.5q27 78 63 156.5t77 155.5t83 153.5t78 150.5h170q-162 -322 -322.5 -640t-322.5 -640h-170q66 129 129.5 256t128.5 256zM245 1065q0 47 33 78t74 31q39 0 71.5 -31t32.5 -78t-32.5 -77t-71.5 -30q-41 0 -74 30t-33 77z M585 1065q0 47 33 78t74 31q39 0 71.5 -31t32.5 -78t-32.5 -77t-71.5 -30q-41 0 -74 30t-33 77z" />
<glyph unicode="&#x2000;" horiz-adv-x="954" />
<glyph unicode="&#x2001;" horiz-adv-x="1909" />
<glyph unicode="&#x2002;" horiz-adv-x="954" />
<glyph unicode="&#x2003;" horiz-adv-x="1909" />
<glyph unicode="&#x2004;" horiz-adv-x="636" />
<glyph unicode="&#x2005;" horiz-adv-x="477" />
<glyph unicode="&#x2006;" horiz-adv-x="318" />
<glyph unicode="&#x2007;" horiz-adv-x="318" />
<glyph unicode="&#x2008;" horiz-adv-x="238" />
<glyph unicode="&#x2009;" horiz-adv-x="381" />
<glyph unicode="&#x200a;" horiz-adv-x="106" />
<glyph unicode="&#x2010;" d="M109 301v166h376v-166h-376z" />
<glyph unicode="&#x2011;" d="M109 301v166h376v-166h-376z" />
<glyph unicode="&#x2012;" d="M109 301v166h376v-166h-376z" />
<glyph unicode="&#x2013;" horiz-adv-x="1042" d="M205 356v166h616v-166h-616z" />
<glyph unicode="&#x2014;" horiz-adv-x="1433" d="M203 356v166h1028v-166h-1028z" />
<glyph unicode="&#x2018;" horiz-adv-x="335" d="M63 1456q27 -4 53.5 -7t53.5 -7q-14 -72 5.5 -132.5t62.5 -101.5q-23 -12 -42.5 -24.5t-41.5 -24.5q-57 57 -82 134t-9 163z" />
<glyph unicode="&#x2019;" horiz-adv-x="335" d="M72 1208q43 41 62.5 101.5t4.5 132.5q27 4 53.5 7t53.5 7q16 -86 -8.5 -163t-81.5 -134q-23 12 -42.5 24.5t-41.5 24.5z" />
<glyph unicode="&#x201a;" horiz-adv-x="299" d="M39 -59q43 41 62.5 101t4.5 132q27 4 53.5 7t53.5 7q16 -86 -8.5 -163t-81.5 -134q-23 12 -42.5 24.5t-41.5 25.5z" />
<glyph unicode="&#x201c;" horiz-adv-x="509" d="M63 1456q27 -4 53.5 -7t53.5 -7q-14 -72 5.5 -132.5t62.5 -101.5q-23 -12 -42.5 -24.5t-41.5 -24.5q-57 57 -82 134t-9 163zM276 1456q27 -4 53.5 -7t53.5 -7q-14 -72 5.5 -132.5t62.5 -101.5q-23 -12 -42.5 -24.5t-41.5 -24.5q-57 57 -82 134t-9 163z" />
<glyph unicode="&#x201d;" horiz-adv-x="507" d="M23 1208q43 41 62 101.5t5 132.5q27 4 53.5 7t53.5 7q16 -86 -9 -163t-82 -134q-23 12 -42 24.5t-41 24.5zM236 1208q43 41 62 101.5t5 132.5q27 4 53.5 7t53.5 7q16 -86 -9 -163t-82 -134q-23 12 -42 24.5t-41 24.5z" />
<glyph unicode="&#x201e;" horiz-adv-x="698" d="M39 -59q43 41 62.5 101t4.5 132q27 4 53.5 7t53.5 7q16 -86 -8.5 -163t-81.5 -134q-23 12 -42.5 24.5t-41.5 25.5zM252 -59q43 41 62.5 101t4.5 132q27 4 53.5 7t53.5 7q16 -86 -8.5 -163t-81.5 -134q-23 12 -42.5 24.5t-41.5 25.5z" />
<glyph unicode="&#x2022;" horiz-adv-x="980" d="M231 614q0 55 20.5 102.5t55.5 83.5t82 56.5t100 20.5q55 0 102.5 -20.5t83.5 -56.5t56.5 -83t20.5 -103q0 -55 -20.5 -102t-56.5 -82t-83 -54.5t-103 -19.5q-53 0 -100 19.5t-82 54.5t-55.5 82t-20.5 102z" />
<glyph unicode="&#x202f;" horiz-adv-x="381" />
<glyph unicode="&#x2039;" horiz-adv-x="802" d="M240 489q88 84 175 165t175 165v-194q-35 -35 -66.5 -68t-66.5 -68q35 -35 66.5 -68.5t66.5 -68.5v-194z" />
<glyph unicode="&#x203a;" horiz-adv-x="802" d="M239 158l350 331q-88 84 -175 165t-175 165v-194q35 -35 66.5 -68t66.5 -68q-35 -35 -66.5 -68.5t-66.5 -68.5v-194z" />
<glyph unicode="&#x205f;" horiz-adv-x="477" />
<glyph unicode="&#x25fc;" horiz-adv-x="768" d="M0 0v768h768v-768h-768z" />
</font>
</defs>
</svg>
